Results 1 to 1 of 1
  1. #1
    Super Member www.desirulez.net
    Join Date
    Jul 2010
    Posts
    421

    T

    Cool Panchamughi (2010) 1CD TC Single Links

    Follow us on Social Media







    Panchamughi (2010) 1CD TC Single Links


    Code:
    MOVIE INFO
    Cast: Anushka Shetty, Vijay Samrat, Bramanandam, Chandra Mohan, Pradeep Rawat and others...
    Genre: Drama
    Music: Chakri
    Producer: Chandra
    Story - Screenplay - Direction: V.Samudra
    General
    Complete name :PANCHAMUGHI 1CD TC.avi
    Format : DivXFormat/Info : Hack of AVI
    File size : 699 MiB
    Duration : 1h 52mn
    Overall bit rate : 872 Kbps
    VideoFormat : MPEG-4 Visual
    Format profile : Streaming [email protected]
    Format settings, BVOP : Yes
    Format settings, QPel : No
    Format settings, GMC : No warppoints
    Format settings, Matrix : Custom
    Muxing mode : Packed bitstream
    Codec ID : DX50
    Codec ID/Hint : DivX 5
    Duration : 1h 52mn
    Bit rate : 732 Kbps
    Width : 640 pixels
    Height : 272 pixels
    Display aspect ratio : 2.35
    Frame rate : 29.970 fps
    Resolution : 24 bits
    Colorimetry : 4:2:0
    Scan type : ProgressiveBits(Pixel*Frame) : 0.140
    Stream size : 587 MiB (84%)
    Title : Video
    Audio
    Format : MPEG Audio
    Format version : Version 1
    Format profile : Layer 3
    Codec ID : 55
    Codec ID/Hint : MP3
    Duration : 1h 52mn
    Bit rate mode : Constant
    Bit rate : 128 Kbps
    Channel(s) : 2 channels
    Sampling rate : 48.0 KHz
    Resolution : 16 bits
    Stream size : 103 MiB (15%)
    Alignment : Split accross interleaves
    Interleave, duration : 33 ms (1.00video frame)
    Interleave, preload duration : 500MS
    Title : Audio
    Writing library : LAME3.98r
    Encoding settings : -m j -V 4 -q 7-lowpass 17 -b 128]
    Screens:











    Download:

    200MB LINKS:

    Code:
    http://www.fileserve.com/file/JwfNr2n
    http://www.fileserve.com/file/JvDXGEr
    http://www.fileserve.com/file/PsRbvw9
    http://www.fileserve.com/file/uBBqprg
    SINGLE LINK:

    Code:
    http://www.fileserve.com/file/qJJCaq9

 

 

Tags for this Thread

Posting Permissions

  • You may not post new threads
  • You may not post replies
  • You may not post attachments
  • You may not edit your posts
  •