Results 1 to 1 of 1
  1. #1
    Banned www.desirulez.net
    Join Date
    Feb 2011
    Posts
    2,003

    T

    Default NANBAN(2012) - 400MB - HQ DVDSCR - Rip - X264 - AAC

    Follow us on Social Media







    NANBAN(2012) - 400MB - HQ DVDSCR - Rip - X264 - AAC

    Nanban (2012) - 400 MB - HQ - DVDScr - Rip - x264 - AAC



    Code:
    Format                                   : MPEG-4
    Format profile                           : Base Media / Version 2
    Codec ID                                 : mp42
    File size                                : 400 MiB
    Duration                                 : 3h 4mn
    Overall bit rate                         : 303 Kbps
    
    Video
    ID                                       : 1
    Format                                   : AVC
    Format/Info                              : Advanced Video Codec
    Format profile                           : [email protected]
    Format settings, CABAC                   : Yes
    Format settings, ReFrames                : 4 frames
    Codec ID                                 : avc1
    Codec ID/Info                            : Advanced Video Coding
    Duration                                 : 3h 4mn
    Bit rate mode                            : Variable
    Bit rate                                 : 139 Kbps
    Width                                    : 640 pixels
    Height                                   : 272 pixels
    Display aspect ratio                     : 2.35:1
    Original display aspect ratio            : 2.35:1
    Frame rate mode                          : Variable
    Frame rate                               : 23.976 fps
    Minimum frame rate                       : 11.987 fps
    Maximum frame rate                       : 99.010 fps
    Color space                              : YUV
    Chroma subsampling                       : 4:2:0
    Bit depth                                : 8 bits
    Scan type                                : Progressive
    Bits/(Pixel*Frame)                       : 0.033
    Stream size                              : 183 MiB (46%)
    Writing library                          : x264 core 112
    
    Audio
    ID                                       : 2
    Format                                   : AAC
    Format/Info                              : Advanced Audio Codec
    Format profile                           : LC
    Codec ID                                 : 40
    Duration                                 : 3h 4mn
    Bit rate mode                            : Variable
    Bit rate                                 : 160 Kbps
    Maximum bit rate                         : 221 Kbps
    Channel(s)                               : 2 channels
    Channel positions                        : Front: L R
    Sampling rate                            : 44.1 KHz
    Compression mode                         : Lossy
    Stream size                              : 211 MiB (53%)



    Single Link
    Code:
    http://ul.to/0qgbiitc
    
    http://filepost.com/files/a3e89c1c/1326740981_400MB.HQ.Dosth12.DVDScr.Rip.avi/
    
    http://www.fileserve.com/file/pBQbXXb
    
    http://www.filesonic.com/file/hqi7NX7/1326740981_400MB.HQ.Dosth12.DVDScr.Rip.avi

 

 

Posting Permissions

  • You may not post new threads
  • You may not post replies
  • You may not post attachments
  • You may not edit your posts
  •