Results 1 to 1 of 1
  1. #1

    Lightbulb Nagaram (2010) 1Cd - (New Source) - PDvd Rip - Xvid - Single Link

    Follow us on Social Media







    Nagaram (2010) 1Cd - (New Source) - PdvdRip - Xvid





    General
    Complete name : Nagaram (2010) 1Cd - New Source - Xvid.avi
    Format : AVI
    Format/Info : Audio Video Interleave
    File size : 706 MiB
    Duration : 2h 33mn
    Overall bit rate : 643 Kbps
    Writing library : Boilsoft AVI tool build 1/release

    Video
    ID : 0
    Format : MPEG-4 Visual
    Format profile : Advanced [email protected]
    Format settings, BVOP : Yes
    Format settings, QPel : No
    Format settings, GMC : No warppoints
    Format settings, Matrix : Default (H.263)
    Muxing mode : Packed bitstream
    Codec ID : XVID
    Codec ID/Hint : XviD
    Duration : 2h 33mn
    Bit rate : 538 Kbps
    Width : 656 pixels
    Height : 288 pixels
    Display aspect ratio : 2.25:1
    Frame rate : 23.976 fps
    Color space : YUV
    Chroma subsampling : 4:2:0
    Bit depth : 8 bits
    Scan type : Progressive
    Compression mode : Lossy
    Bits/(Pixel*Frame) : 0.119
    Stream size : 590 MiB (84%)
    Writing library : XviD 1.2.1 (UTC 2008-12-04)

    Audio
    ID : 1
    Format : MPEG Audio
    Format version : Version 1
    Format profile : Layer 3
    Mode : Joint stereo
    Codec ID : 55
    Codec ID/Hint : MP3
    Duration : 2h 33mn
    Bit rate mode : Constant
    Bit rate : 96.0 Kbps
    Channel(s) : 2 channels
    Sampling rate : 32.0 KHz
    Compression mode : Lossy
    Stream size : 105 MiB (15%)
    Alignment : Split accross interleaves
    Interleave, duration : 42 ms (1.00 video frame)
    Interleave, preload duration : 500 ms
    Writing library : LAME3.98r











    Code:
    http://www.duckload.com/dl/sEiC2

 

 

Posting Permissions

  • You may not post new threads
  • You may not post replies
  • You may not post attachments
  • You may not edit your posts
  •