Results 1 to 1 of 1
  1. #1
    Hot Member www.desirulez.net
    Join Date
    Sep 2010
    Posts
    1,427

    T

    Arrow Maruthani (2010) - Tamil - Lotus - DVD Rip - 1 CD - Xvid - HQ

    Follow us on Social Media












    Banner: Super Good Films
    Cast: Aarti Agarwal, Dr Rajashekar, Meera Jasmine, Aakash & Venu Madhav
    Direction: V R Pratap
    Production: R B Choudary
    Music: S A RajKumar
    Lyricis: Abiman, Perai Sudan & Samsan
    Credit " MJY
    Uploader: JaYaRaJ @ Team SD

    Info ::--
    Code:
    General
    Format : AVI
    Format/Info : Audio Video Interleave
    File size : 822 MiB
    Duration : 2h 35mn
    Overall bit rate : 740 Kbps
    
    Video
    ID : 0
    Format : MPEG-4 Visual
    Format profile : Advanced [email protected]
    Format settings, BVOP : Yes
    Format settings, QPel : No
    Format settings, GMC : No warppoints
    Format settings, Matrix : Default (H.263)
    Codec ID : XVID
    Codec ID/Hint : XviD
    Duration : 2h 35mn
    Bit rate : 630 Kbps
    Width : 528 pixels
    Height : 284 pixels
    Display aspect ratio : 1.859
    Frame rate : 29.970 fps
    Color space : YUV
    Chroma subsampling : 4:2:0
    Bit depth : 8 bits
    Scan type : Progressive
    Bits/(Pixel*Frame) : 0.140
    Stream size : 700 MiB (85%)
    Writing library : XviD 1.2.1 (UTC 2008-12-04)
    
    Audio
    ID : 1
    Format : MPEG Audio
    Format version : Version 1
    Format profile : Layer 3
    Codec ID : 55
    Codec ID/Hint : MP3
    Duration : 2h 35mn
    Bit rate mode : Constant
    Bit rate : 96.0 Kbps
    Channel(s) : 2 channels
    Sampling rate : 48.0 KHz
    Stream size : 107 MiB (13%)
    Alignment : Split accross interleaves
    Interleave, duration : 24 ms (0.72 video frame)
    ScreenCaps::--

    Download Links::--
    Code:
    http://cramit.in/rv2jy9xpec8h
    http://cramit.in/7c4iz5ptum1x
    http://cramit.in/plp7b3w6j07b
    http://cramit.in/x2d194kc2w5i
    
    http://depositfiles.com/files/71lmruzvu
    http://depositfiles.com/files/xrbx05042
    http://depositfiles.com/files/yofo3egic
    http://depositfiles.com/files/n59yfv1kl
    
    http://www.easy-share.com/1913029165/Maruthani [2010] - Tamil - Lotus - 1CD - Xvid - JaYaRaJ - Team SD.avi.001
    http://www.easy-share.com/1913029167/Maruthani [2010] - Tamil - Lotus - 1CD - Xvid - JaYaRaJ - Team SD.avi.002
    http://www.easy-share.com/1913029171/Maruthani [2010] - Tamil - Lotus - 1CD - Xvid - JaYaRaJ - Team SD.avi.003
    http://www.easy-share.com/1913029175/Maruthani [2010] - Tamil - Lotus - 1CD - Xvid - JaYaRaJ - Team SD.avi.004
    
    http://www.filefactory.com/file/b4599a8/n/Maruthani_2010_-_Tamil_-_Lotus_-_1CD_-_Xvid_-_JaYaRaJ_-_Team_SD_avi_001
    http://www.filefactory.com/file/b4599a9/n/Maruthani_2010_-_Tamil_-_Lotus_-_1CD_-_Xvid_-_JaYaRaJ_-_Team_SD_avi_002
    http://www.filefactory.com/file/b5310b6/n/Maruthani_2010_-_Tamil_-_Lotus_-_1CD_-_Xvid_-_JaYaRaJ_-_Team_SD_avi_003
    http://www.filefactory.com/file/b4599b4/n/Maruthani_2010_-_Tamil_-_Lotus_-_1CD_-_Xvid_-_JaYaRaJ_-_Team_SD_avi_004
    
    http://hotfile.com/dl/83745550/ecaf205/Maruthani_2010_-_Tamil_-_Lotus_-_1CD_-_Xvid_-_JaYaRaJ_-_Team_SD.avi.001.html
    http://hotfile.com/dl/83745575/066a719/Maruthani_2010_-_Tamil_-_Lotus_-_1CD_-_Xvid_-_JaYaRaJ_-_Team_SD.avi.002.html
    http://hotfile.com/dl/83745614/5d1cafd/Maruthani_2010_-_Tamil_-_Lotus_-_1CD_-_Xvid_-_JaYaRaJ_-_Team_SD.avi.003.html
    http://hotfile.com/dl/83745908/b1a9724/Maruthani_2010_-_Tamil_-_Lotus_-_1CD_-_Xvid_-_JaYaRaJ_-_Team_SD.avi.004.html
    
    http://x7.to/mpz5jy
    http://x7.to/loefod
    http://x7.to/7yu183
    http://x7.to/lfq2e1
    All Links Are Interchangeable Join Them Using HJSplit
    Single Links ::--
    Code:
    http://cramitin.net/3s72e6vqaa97
    http://depositfiles.com/files/hb36xeosu
    http://www.easy-share.com/1913029216/Maruthani [2010] - Tamil - Lotus - 1CD - Xvid - JaYaRaJ - Team SD.avi
    http://x7.to/brbrvc


 

 

Posting Permissions

  • You may not post new threads
  • You may not post replies
  • You may not post attachments
  • You may not edit your posts
  •