Results 1 to 1 of 1
  1. #1

    Cool KO (2011) 1CD - DVDRIP - LOTUS - XVID - MP3 - Team ArG

    Follow us on Social Media








    KO (2011) 1CD - DVDRIP - LOTUS - XVID - MP3 - Team ExD



    INFO::
    Director:Anand K.V.
    Writers:Anand K.V., Subha
    Stars:Ajmal Ameer, Piaa Bajpai and Jeeva
    Release Date:22 April 2011 (India)

    IMDB LINK:Ko (2011) - IMDb
    Format : Matroska
    File size : 756 MiB
    Duration : 2h 38mn
    Overall bit rate : 669 Kbps

    Video
    ID : 1
    Format : MPEG-4 Visual
    Format profile : Advanced [email protected]
    Format settings, BVOP : Yes
    Format settings, QPel : No
    Format settings, GMC : No warppoints
    Format settings, Matrix : Default (H.263)
    Codec ID : XVID
    Codec ID/Hint : XviD
    Duration : 2h 38mn
    Bit rate : 559 Kbps
    Width : 608 pixels
    Height : 288 pixels
    Display aspect ratio : 2.2:1
    Frame rate : 29.970 fps
    Color space : YUV
    Chroma subsampling : 4:2:0
    Bit depth : 8 bits
    Scan type : Progressive
    Compression mode : Lossy
    Bits/(Pixel*Frame) : 0.107
    Stream size : 632 MiB (84%)
    Title : HARSH
    Writing library : XviD 1.2.1 (UTC 2008-12-04)
    Language : Tamil

    Audio
    ID : 2
    Format : MPEG Audio
    Format version : Version 1
    Format profile : Layer 3
    Mode : Joint stereo
    Mode extension : MS Stereo
    Codec ID : A_MPEG/L3
    Codec ID/Hint : MP3
    Duration : 2h 38mn
    Bit rate mode : Constant
    Bit rate : 96.0 Kbps
    Channel(s) : 2 channels
    Stream size : 109 MiB (14%)
    Title : HARSH
    Language : Tamil
    SCREENSHOTS::













    DOWNLOAD FROM DUCKLOAD::
    Code:
    http://www.duckload.com/download/6139391/KOdvdrip.mka
    DOWNLOAD FROM FREAKSHARE::
    Code:
    http://freakshare.com/files/apzzhv3a/KOdvdrip.mka.html
    DOWNLOAD FROM WUPLOAD::
    Code:
    http://www.wupload.com/file/3751733/KOdvdrip.mka

    All Credits Goes To : Team ArG



 

 

Posting Permissions

  • You may not post new threads
  • You may not post replies
  • You may not post attachments
  • You may not edit your posts
  •