Results 1 to 2 of 2
  1. #1

    Wink Kaavalan (2011) 1CD - Xvid - DVDRip (Single Link)

    Follow us on Social Media








    Kaavalan (2011) 1CD - Xvid - DVDRip





    Format : AVI
    Format/Info : Audio Video Interleave
    Format profile : OpenDML
    File size : 692 MiB
    Duration : 2h 24mn
    Overall bit rate : 672 Kbps
    Writing application : AVI-Mux GUI 1.17.8.3, Feb 16 201019:42:50

    Video
    ID : 0
    Format : MPEG-4 Visual
    Format profile : Advanced [email protected]
    Format settings, BVOP : Yes
    Format settings, QPel : No
    Format settings, GMC : No warppoints
    Format settings, Matrix : Default (H.263)
    Codec ID : XVID
    Codec ID/Hint : XviD
    Duration : 2h 24mn
    Bit rate : 602 Kbps
    Width : 608 pixels
    Height : 272 pixels
    Display aspect ratio : 2.25:1
    Frame rate : 29.970 fps
    Color space : YUV
    Chroma subsampling : 4:2:0
    Bit depth : 8 bits
    Scan type : Progressive
    Bits/(Pixel*Frame) : 0.121
    Stream size : 621 MiB (90%)
    Writing library : XviD 1.2.1 (UTC 2008-12-04)

    Audio
    ID : 1
    Format : MPEG Audio
    Format version : Version 1
    Format profile : Layer 3
    Codec ID : 55
    Codec ID/Hint : MP3
    Duration : 2h 24mn
    Bit rate mode : Variable
    Bit rate : 60.3 Kbps
    Nominal bit rate : 64.0 Kbps
    Channel(s) : 1 channel
    Sampling rate : 48.0 KHz
    Stream size : 62.1 MiB (9%)
    Alignment : Aligned on interleaves
    Interleave, duration : 24 ms (0.72 video frame)








    DOWNLOAD FROM DUCKLOAD::
    Code:
    http://www.duckload.com/download/2858665/Kaavalan_2011_Dvdrip.avi

    CREDITS TO TEAM IST



  2. #2

 

 

Posting Permissions

  • You may not post new threads
  • You may not post replies
  • You may not post attachments
  • You may not edit your posts
  •