Results 1 to 1 of 1
  1. #1
    Hot Member www.desirulez.net
    Join Date
    Sep 2010
    Posts
    1,427

    T

    Arrow Kaavalan (2011) - 1 CD - Ayn DVD Rip - Xvid - MP3 - E Subs - Team SD

    Follow us on Social Media









    Rip Info::--
    Code:
    Format                           : AVI
    Format/Info                      : Audio Video Interleave
    Format profile                   : OpenDML
    File size                        : 700 MiB
    Duration                         : 2h 30mn
    Overall bit rate                 : 651 Kbps
    
    Video
    ID                               : 0
    Format                           : MPEG-4 Visual
    Format profile                   : Advanced [email protected]
    Format settings, BVOP            : Yes
    Format settings, QPel            : No
    Format settings, GMC             : No warppoints
    Format settings, Matrix          : Default (H.263)
    Codec ID                         : XVID
    Codec ID/Hint                    : XviD
    Duration                         : 2h 30mn
    Bit rate                         : 582 Kbps
    Width                            : 608 pixels
    Height                           : 256 pixels
    Display aspect ratio             : 2.35:1
    Frame rate                       : 23.976 fps
    Color space                      : YUV
    Chroma subsampling               : 4:2:0
    Bit depth                        : 8 bits
    Scan type                        : Progressive
    Bits/(Pixel*Frame)               : 0.156
    Stream size                      : 626 MiB (89%)
    
    Audio
    ID                               : 1
    Format                           : MPEG Audio
    Format version                   : Version 1
    Format profile                   : Layer 3
    Codec ID                         : 55
    Codec ID/Hint                    : MP3
    Duration                         : 2h 30mn
    Bit rate mode                    : Variable
    Bit rate                         : 60.5 Kbps
    Nominal bit rate                 : 64.0 Kbps
    Channel(s)                       : 1 channel
    Sampling rate                    : 48.0 KHz
    Stream size                      : 65.1 MiB (9%)







    ScreenCaps::--

    Credits ::-- Team !ST
    Uploader ::-- Team SD

    Download Links ::--
    Code:
    http://www.ziddu.com/download/14060744/alan2011-1CD-AynDVDRip-Xvid-MP3-ESubs-TeamSD.avi.001.html
    http://www.ziddu.com/download/14060741/alan2011-1CD-AynDVDRip-Xvid-MP3-ESubs-TeamSD.avi.002.html
    http://www.ziddu.com/download/14060737/alan2011-1CD-AynDVDRip-Xvid-MP3-ESubs-TeamSD.avi.003.html
    http://www.ziddu.com/download/14060717/alan2011-1CD-AynDVDRip-Xvid-MP3-ESubs-TeamSD.avi.004.html
    
    http://www.filefactory.com/file/cad32ff/n/Kaavalan_2011_-_1_CD_-_Ayn_DVD_Rip_-_Xvid_-_MP3_-_E_Subs_-_Team_SD_avi_001
    http://www.filefactory.com/file/cad3205/n/Kaavalan_(2011)_-_1_CD_-_Ayn_DVD_Rip_-_Xvid_-_MP3_-_E_Subs_-_Team_SD_avi_002
    http://www.filefactory.com/file/cad32e1/n/Kaavalan_2011_-_1_CD_-_Ayn_DVD_Rip_-_Xvid_-_MP3_-_E_Subs_-_Team_SD_avi_003
    http://www.filefactory.com/file/cad32ec/n/Kaavalan_2011_-_1_CD_-_Ayn_DVD_Rip_-_Xvid_-_MP3_-_E_Subs_-_Team_SD_avi_004
    
    http://www.fileserve.com/file/xYttk9W
    http://www.fileserve.com/file/xUTw55A
    http://www.fileserve.com/file/x3B4tD5
    http://www.fileserve.com/file/7bVf4Au
    All Links Are Interchangeable Join Them Using HJSplit
    Single Download Links ::--
    Code:
    http://www.filefactory.com/file/cad322e/n/Kaavalan_(2011)_-_1_CD_-_Ayn_DVD_Rip_-_Xvid_-_MP3_-_E_Subs_-_Team_SD.avi
    
    http://www.fileserve.com/file/sADkqxE
    Links For English Subs ::--
    Code:
    IDX File::--
    http://www.ziddu.com/download/14060916/
    http://cramit.in/bn70ir4oqckb
    
    Sub File::--
    http://www.ziddu.com/download/14060920/
    http://cramit.in/y2skj9c2h2to

 

 

Posting Permissions

  • You may not post new threads
  • You may not post replies
  • You may not post attachments
  • You may not edit your posts
  •