Results 1 to 1 of 1
  1. #1

    Thumbs up [HBK-DVD]Goundamani-Senthil~XviD~Comedy Video's By HBK

    Follow us on Social Media
























    INFO

    General
    Complete name : [HBK-DVD]Goundamani-Senthil~XviD~
    Format : AVI
    Format/Info : Audio Video Interleave
    File size : 293 MiB
    Duration : 1h 5mn
    Overall bit rate : 622 Kbps
    Writing application : VirtualDubMod 1.5.10.2 (build 2540/release)
    Writing library : VirtualDubMod build 2540/release

    Video
    ID : 0
    Format : MPEG-4 Visual
    Codec ID : XVID
    Codec ID/Hint : XviD
    Duration : 1h 5mn
    Bit rate : 514 Kbps
    Width : 352 pixels
    Height : 480 pixels
    Display aspect ratio : 0.733
    Frame rate : 29.970 fps
    Standard : NTSC
    Color space : YUV
    Chroma subsampling : 4:2:0
    Compression mode : Lossy
    Bits/(Pixel*Frame) : 0.102
    Stream size : 242 MiB (83%)

    Audio
    ID : 1
    Format : MPEG Audio
    Format version : Version 1
    Format profile : Layer 3
    Mode : Joint stereo
    Mode extension : MS Stereo
    Codec ID : 55
    Codec ID/Hint : MP3
    Duration : 1h 5mn
    Bit rate mode : Constant
    Bit rate : 96.0 Kbps
    Channel(s) : 2 channels
    Sampling rate : 48.0 KHz
    Compression mode : Lossy
    Stream size : 45.2 MiB (15%)
    Alignment : Aligned on interleaves
    Interleave, duration : 33 ms (1.00 video frame)
    Interleave, preload duration : 504 ms
    Writing library : LAME3.98b
    Encoding settings : -m j -V 4 -q 0 -lowpass 15.1 -b 96

    PASSW0RD
    Code:
    http://www.ziddu.com/download/13245187/DVD-RIPVadivelu-VivekKingsOfComedy-PASSWORD.txt.html


    Code:
    http://www.filesonic.com/file/51951281/[HBK-DVD]Goundamani-Senthil~XviD~.part01.rar
    http://www.filesonic.com/file/51971117/[HBK-DVD]Goundamani-Senthil~XviD~.part02.rar
    http://www.filesonic.com/file/52313131/[HBK-DVD]Goundamani-Senthil~XviD~.part05.rar
    http://www.filesonic.com/file/52313421/[HBK-DVD]Goundamani-Senthil~XviD~.part03.rar
    http://www.filesonic.com/file/52313999/[HBK-DVD]Goundamani-Senthil~XviD~.part04.rar
    http://www.filesonic.com/file/52384055/[HBK-DVD]Goundamani-Senthil~XviD~.part06.rar
    http://www.filesonic.com/file/52459941/[HBK-DVD]Goundamani-Senthil~XviD~.part07.rar
    http://www.filesonic.com/file/52426203/[HBK-DVD]Goundamani-Senthil~XviD~.part08.rar
    http://www.filesonic.com/file/52553721/[HBK-DVD]Goundamani-Senthil~XviD~.part09.rar
    http://www.filesonic.com/file/52493757/[HBK-DVD]Goundamani-Senthil~XviD~.part10.rar

    For More Comedy Collection
    &
    Videos
    Code:
    http://www.filesonic.com/folder/c6f7b74b3aa1cfd29


 

 

Posting Permissions

  • You may not post new threads
  • You may not post replies
  • You may not post attachments
  • You may not edit your posts
  •