Results 1 to 1 of 1
  1. #1
    dR Contributor www.desirulez.net
    Join Date
    Jan 2011
    Posts
    2,299

    T

    Smile Endhiran (2010) - 2CD - DVDRip - Xvid

    Follow us on Social Media









    Casts: Rajnikanth, Aishwarya Rai, Danny Danzongappa
    Director: Shankar
    Genre: Action, Sci-Fi


    Rip Info:

    Video

    ID : 1
    Format : AVC
    Format/Info : Advanced Video Codec
    Format profile : [email protected]
    Format settings, CABAC : Yes
    Format settings, ReFrames : 4 frames
    Format settings, GOP : M=1, N=16
    Codec ID : V_MPEG4/ISO/AVC
    Duration : 2h 56mn
    Bit rate : 908 Kbps
    Width : 688 pixels
    Height : 288 pixels
    Display aspect ratio : 2.35:1
    Frame rate : 23.976 fps
    Color space : YUV
    Chroma subsampling : 4:2:0
    Bit depth : 8 bits
    Scan type : Progressive
    Bits/(Pixel*Frame) : 0.191
    Stream size : 1.10 GiB (78%)
    Writing library : x264 core 112 r1867 22bfd31


    Audio

    ID : 2
    Format : AC-3
    Format/Info : Audio Coding 3
    Codec ID : A_AC3
    Duration : 2h 56mn
    Bit rate mode : Constant
    Bit rate : 224 Kbps
    Channel(s) : 6 channels
    Channel positions : Front: L C R, Side: L R, LFE
    Sampling rate : 48.0 KHz
    Bit depth : 16 bits
    Compression mode : Lossy
    Delay relative to video : 2s 402ms
    Stream size : 284 MiB (20%)


    Screenshots:









    Download:

    Code:
    http://cramit.in/izbtx3mv5vb0

 

 

Posting Permissions

  • You may not post new threads
  • You may not post replies
  • You may not post attachments
  • You may not edit your posts
  •