Results 1 to 1 of 1
  1. #1
    Tech Team www.desirulez.net
    Join Date
    Dec 2010
    Location
    India
    Posts
    434

    T

    Default Endhiran (2010)1CD - x264 - Lotus - DvDriP - Mp4 - Chaps

    Follow us on Social Media







    Endhiran (2010)1CD - x264 - Lotus - DvDriP - Mp4 - Chaps



    General
    Complete name : Endhiran (2010) Lotus Dvdrip.mp4
    Format : MPEG-4
    Format profile : Base Media
    Codec ID : isom
    File size : 701 MiB
    Duration : 2h 43mn
    Overall bit rate : 599 Kbps
    Encoded date : UTC 2010-11-27 07:16:40
    Tagged date : UTC 2010-11-27 07:16:40

    Video
    ID : 1
    Format : AVC
    Format/Info : Advanced Video Codec
    Format profile : [email protected]
    Format settings, CABAC : Yes
    Format settings, ReFrames : 4 frames
    Codec ID : avc1
    Codec ID/Info : Advanced Video Coding
    Duration : 2h 43mn
    Bit rate mode : Variable
    Bit rate : 532 Kbps
    Maximum bit rate : 3 361 Kbps
    Width : 608 pixels
    Height : 272 pixels
    Display aspect ratio : 2.25:1
    Frame rate mode : Constant
    Frame rate : 23.976 fps
    Color space : YUV
    Chroma subsampling : 4:2:0
    Bit depth : 8 bits
    Scan type : Progressive
    Bits/(Pixel*Frame) : 0.134
    Stream size : 621 MiB (89%)
    Writing library : x264 core 98 r1649 c54c47d
    Encoded date : UTC 2010-11-26 21:27:14
    Tagged date : UTC 2010-11-27 07:17:18

    Audio
    ID : 2
    Format : AAC
    Format/Info : Advanced Audio Codec
    Format version : Version 4
    Format profile : LC
    Format settings, SBR : No
    Codec ID : 40
    Duration : 2h 43mn
    Bit rate mode : Variable
    Bit rate : 64.5 Kbps
    Maximum bit rate : 82.6 Kbps
    Channel(s) : 2 channels
    Channel positions : Front: L R
    Sampling rate : 48.0 KHz
    Stream size : 75.5 MiB (11%)
    Encoded date : UTC 2010-11-27 07:17:10
    Tagged date : UTC 2010-11-27 07:17:18

    Menu
    00:00:00.000 : Chapter 01
    00:01:08.334 : Chapter 02
    00:03:15.334 : Chapter 03
    00:19:21.434 : Chapter 04
    00:24:42.801 : Chapter 05
    00:50:24.101 : Chapter 06
    00:54:44.635 : Chapter 07
    01:19:52.536 : Chapter 08
    01:24:48.936 : Chapter 09
    01:30:53.071 : Chapter 10
    01:32:16.672 : Chapter 11
    01:45:28.839 : Chapter 12
    01:50:42.906 : Chapter 13
    02:17:05.906 : Chapter 14
    02:22:04.640 : Chapter 15
    02:43:25.874 : Chapter 16








    DOWNLOAD LINK::
    SIZE::700MB

    Code:
    http://www.duckload.com/dl/itzC2

 

 

Posting Permissions

  • You may not post new threads
  • You may not post replies
  • You may not post attachments
  • You may not edit your posts
  •