Results 1 to 1 of 1
  1. #1
    Tech Team www.desirulez.net
    Join Date
    Dec 2010
    Location
    India
    Posts
    434

    T

    Smile Drunken Master - TV Rip - Tamil DUbbed - x264

    Follow us on Social Media









    Drunken Master - TV Rip - Tamil DUbbed - x264






    Format : Matroska
    File size : 306 MiB
    Duration : 1h 26mn
    Overall bit rate : 497 Kbps
    Writing application : Lavf52.0.0
    Writing library : Lavf52.0.0

    Video
    ID : 1
    Format : MPEG-4 Visual
    Format profile : [email protected]
    Format settings, BVOP : No
    Format settings, QPel : No
    Format settings, GMC : No warppoints
    Format settings, Matrix : Default (H.263)
    Codec ID : V_MPEG4/ISO/ASP
    Codec ID/Info : Advanced Simple Profile
    Duration : 1h 26mn
    Bit rate : 359 Kbps
    Width : 450 pixels
    Height : 250 pixels
    Display aspect ratio : 4:3
    Frame rate mode : Constant
    Frame rate : 25.000 fps
    Color space : YUV
    Chroma subsampling : 4:2:0
    Bit depth : 8 bits
    Scan type : Progressive
    Compression mode : Lossy
    Bits/(Pixel*Frame) : 0.128
    Stream size : 221 MiB (72%)
    Writing library : Lavc52.48.0
    Language : Tamil

    Audio
    ID : 2
    Format : AC-3
    Format/Info : Audio Coding 3
    Mode extension : CM (complete main)
    Codec ID : A_AC3
    Duration : 1h 26mn
    Bit rate mode : Constant
    Bit rate : 128 Kbps
    Channel(s) : 2 channels
    Channel positions : Front: L R
    Sampling rate : 44.1 KHz
    Bit depth : 16 bits
    Compression mode : Lossy
    Delay relative to video : 327ms
    Stream size : 78.8 MiB (26%)
    Language : Tamil




    DOWNLOAD FROM DUCKLOAD::
    Code:
    http://www.duckload.com/dl/Jt7k2
    DOWNLOAD FROM Freakshare::
    Code:
    http://freakshare.com/files/58sqi9j0/DMaster.mkv.html

    Credits To Original Releaser


 

 

Posting Permissions

  • You may not post new threads
  • You may not post replies
  • You may not post attachments
  • You may not edit your posts
  •