Results 1 to 1 of 1
  1. #1

    Red face Boss Engira Bashkaran (2010) ~ AYN ~1CD DVDRIP ~ x264 ~ Mp4 ~ Subs ~ Team IST-Single

    Follow us on Social Media









    Banner: Vasan Visual Venture
    Cast: Arya, Nayantara
    Direction: Rajesh
    Production: Srinivasan
    Music: Yuvan Shankar Raja





    Source: AYN DVD 9 @ IST King

    Format : MPEG-4
    Format profile : Base Media
    Codec ID : isom
    File size : 706 MiB
    Duration : 2h 41mn
    Overall bit rate : 612 Kbps

    Video
    ID : 1
    Format : AVC
    Duration : 2h 41mn
    Bit rate : 541 Kbps
    Maximum bit rate : 5 644 Kbps
    Width : 608 pixels
    Height : 256 pixels
    Display aspect ratio : 2.35:1
    Frame rate mode : Constant
    Frame rate : 23.976 fps
    Scan type : Progressive
    Bits/(Pixel*Frame) : 0.145
    Stream size : 620 MiB (88%)

    Audio
    ID : 2
    Format : AAC
    Format/Info : Advanced Audio Codec
    Duration : 2h 41mn
    Bit rate mode : Variable
    Bit rate : 64.4 Kbps
    Maximum bit rate : 123 Kbps
    Channel(s) : 2 channels
    Channel positions : Front: L R
    Sampling rate : 48.0 KHz
    Stream size : 74.2 MiB (11%)

    Subtitle : English [Hardcoded]

















    SINGLE LINKS
    Code:
    http://cramit.in/zw4rjibbl7bh
    http://hotfile.com/dl/90186011/47d7836/Boss.Engira.Bashkaran.2010.1CD.AYN.DVDRIP.x264.Subs.mp4.html

 

 

Posting Permissions

  • You may not post new threads
  • You may not post replies
  • You may not post attachments
  • You may not edit your posts
  •