Results 1 to 1 of 1
  1. #1
    Tech Team www.desirulez.net
    Join Date
    Dec 2010
    Location
    India
    Posts
    434

    T

    Default Azhagiya Tamil Magan (2007) 2CD - DVDrip - XviD

    Follow us on Social Media







    Azhagiya Tamil Magan (2007) 2CD - DVDrip - XviD



    General
    Complete name : Azhagiya Tamil Magan(2007) - DVDrip - XviD
    Format : AVI
    Format/Info : Audio Video Interleave
    Overall bit rate : 1 201 Kbps
    Writing library : vi

    Video
    ID : 0
    Format : MPEG-4 Visual
    Format profile : Advanced [email protected]
    Format settings, BVOP : Yes
    Format settings, QPel : No
    Format settings, GMC : No warppoints
    Format settings, Matrix : Default (H.263)
    Muxing mode : Packed bitstream
    Codec ID : XVID
    Codec ID/Hint : XviD
    Bit rate : 1 060 Kbps
    Width : 688 pixels
    Height : 272 pixels
    Display aspect ratio : 2.529
    Frame rate : 23.976 fps
    Color space : YUV
    Chroma subsampling : 4:2:0
    Bit depth : 8 bits
    Scan type : Progressive
    Bits/(Pixel*Frame) : 0.236
    Stream size : 613 MiB (88%)
    Writing library : XviD 1.2.0.dev47 (UTC 2006-11-01)

    Audio
    ID : 1
    Format : MPEG Audio
    Format version : Version 1
    Format profile : Layer 3
    Mode : Joint stereo
    Mode extension : MS Stereo
    Codec ID : 55
    Codec ID/Hint : MP3
    Duration : 1h 20mn
    Bit rate mode : Constant
    Bit rate : 128 Kbps
    Channel(s) : 2 channels
    Sampling rate : 48.0 KHz
    Stream size : 74.0 MiB (11%)
    Alignment : Aligned on interleaves
    Interleave, duration : 42 ms (1.00 video frame)
    Writing library : LAME3.97








    Download Link::
    Size::1450MB

    Code:
    http://www.duckload.com/download/1306301/Azhagiya_Tamil_Magan_2007_-_DVDrip_-_XviD_-_CD_1.avi
    Code:
    http://www.duckload.com/download/1306322/Azhagiya_Tamil_Magan_2007_-_DVDrip_-_XviD_-_CD_2.avi

 

 

Posting Permissions

  • You may not post new threads
  • You may not post replies
  • You may not post attachments
  • You may not edit your posts
  •