Results 1 to 1 of 1
  1. #1
    Hot Member www.desirulez.net
    Join Date
    Sep 2010
    Posts
    1,427

    T

    Arrow Ayyanar(2010) - 1 CD - Sruthi DVD Rip - X264 - AAC - Team SD

    Follow us on Social Media









    Code:
    Format                           : MPEG-4
    Format profile                   : Base Media
    Codec ID                         : isom
    File size                        : 701 MiB
    Duration                         : 2h 5mn
    Overall bit rate                 : 780 Kbps
    Encoded date                     : UTC 2011-01-14 21:29:52
    Tagged date                      : UTC 2011-01-14 21:29:52
    
    Video
    ID                               : 1
    Format                           : AVC
    Format/Info                      : Advanced Video Codec
    Format profile                   : [email protected]
    Format settings, CABAC           : Yes
    Format settings, ReFrames        : 4 frames
    Format settings, GOP             : N=1
    Codec ID                         : avc1
    Codec ID/Info                    : Advanced Video Coding
    Duration                         : 2h 5mn
    Bit rate mode                    : Variable
    Bit rate                         : 713 Kbps
    Maximum bit rate                 : 5 131 Kbps
    Width                            : 608 pixels
    Height                           : 256 pixels
    Display aspect ratio             : 2.35:1
    Frame rate mode                  : Constant
    Frame rate                       : 29.970 fps
    Color space                      : YUV
    Chroma subsampling               : 4:2:0
    Bit depth                        : 8 bits
    Scan type                        : Progressive
    Bits/(Pixel*Frame)               : 0.153
    Stream size                      : 639 MiB (91%)
    
    Audio
    ID                               : 2
    Format                           : AAC
    Format/Info                      : Advanced Audio Codec
    Format version                   : Version 4
    Format profile                   : LC
    Format settings, SBR             : Yes
    Format settings, PS              : No
    Codec ID                         : 40
    Duration                         : 2h 5mn
    Bit rate mode                    : Variable
    Bit rate                         : 66.15 Kbps
    Maximum bit rate                 : 80.5 Kbps
    Channel(s)                       : 2 channels
    Channel positions                : Front: L R
    Sampling rate                    : 48.0 KHz
    Stream size                      : 58.7 MiB (8%)
    Credits ::-- Team !ST
    Uploader ::-- -=[DON]=- @ Team SD







    Download Links ::--
    Code:
    http://www.fileserve.com/file/7AaPpaX
    http://www.fileserve.com/file/qYnwYc6
    http://www.fileserve.com/file/gAhhQnv
    http://www.fileserve.com/file/R8b9rnf
    
    http://www.filefactory.com/file/b50a319/n/Ayannar_2010_-_1_CD_-_Sruthi_DVD_Rip_-_Xvid_-_MP3_-_Team_SD_avi_001
    http://www.filefactory.com/file/b50a31g/n/Ayannar_2010_-_1_CD_-_Sruthi_DVD_Rip_-_Xvid_-_MP3_-_Team_SD_avi_002
    http://www.filefactory.com/file/b50a349/n/Ayannar_2010_-_1_CD_-_Sruthi_DVD_Rip_-_Xvid_-_MP3_-_Team_SD_avi_003
    http://www.filefactory.com/file/b50a32b/n/Ayannar_2010_-_1_CD_-_Sruthi_DVD_Rip_-_Xvid_-_MP3_-_Team_SD_avi_004
    Single Links ::--
    Code:
    http://www.fileserve.com/file/DZSD7Bw
    
    http://www.filefactory.com/file/b50a325/n/Ayannar_2010_-_1_CD_-_Sruthi_DVD_Rip_-_Xvid_-_MP3_-_Team_SD_avi

 

 

Posting Permissions

  • You may not post new threads
  • You may not post replies
  • You may not post attachments
  • You may not edit your posts
  •