Results 1 to 1 of 1
  1. #1
    Super Member www.desirulez.net
    Join Date
    Jul 2010
    Posts
    421

    T

    Thumbs up Ayan 2009 BluRay ~ x264 ~ Dolby Digital 5.1Ch Sound ~ Esubs Split Links

    Follow us on Social Media







    Ayan 2009 BluRay ~ x264 ~ Dolby Digital 5.1Ch Sound ~ Esubs Split Links


    Code:
    Rip Info :
    Source Credits : king ( 1080p )
    Ripper : baboo16
    General
    Format                          : Matroska
    File size                       : 2.09 GiB
    Duration                        : 2h 42mn
    Overall bit rate                 : 1 840 Kbps
    VideoID                              : 1
    Format                          : AVC
    Format/Info                     : Advanced Video Codec
    Format profile                  : [email protected]
    Format settings, CABAC           : No
    Format settings, ReFrames        : 1 frame
    Muxing mode                     : Container [email protected]
    Codec ID                         : V_MPEG4/ISO/AVC
    Duration                        : 2h 42mn
    Bit rate                        : 1 355 Kbps
    Width                           : 752 pixels
    Height                          : 320 pixels
    Display aspect ratio             : 2.35:1
    Frame rate                      : 29.970 fps
    Color space                     : YUV
    Chromasubsampling               : 4:2:0
    Bit depth                       : 8 bits
    Scan type                       : Progressive
    Bits/(Pixel*Frame)              : 0.188
    Stream size                     : 1.54 GiB (74%)
    AudioID                              : 2
    Format                          : AC-3
    Format/Info                     : Audio Coding 3
    Mode extension                  : CM (complete main)
    Codec ID                        : A_AC3
    Duration                        : 2h 42mn
    Bitrate mode                    :Constant
    Bit rate                        : 448 Kbps
    Channel(s)                      : 6 channels
    Channel positions                : Front: L C R, Side: L R, LFE
    Sampling rate                   : 48.0 KHz
    Bit depth                       : 16 bits
    Stream size                     : 520 MiB (24%)
    Screens:














    Download:

    450MB LINKS:

    Code:
    http://www.fileserve.com/file/Rh3Ktzs
    http://www.fileserve.com/file/5hzJQa3
    http://www.fileserve.com/file/ZrXBGz9
    http://www.fileserve.com/file/yTA2SFS
    http://www.fileserve.com/file/pfYyZtG

 

 

Posting Permissions

  • You may not post new threads
  • You may not post replies
  • You may not post attachments
  • You may not edit your posts
  •