Results 1 to 1 of 1
  1. #1
    Hot Member www.desirulez.net
    Join Date
    Sep 2010
    Posts
    1,427

    T

    Arrow The Last Airbender (2010) Tamil Dubbed 3D View HD DvD Rip x264 AAC (FS,FF,WU)

    Follow us on Social Media










    Code:
    Format                           : MPEG-4
    Format profile                   : Base Media / Version 2
    Codec ID                         : mp42
    File size                        : 700 MiB
    Duration                         : 1h 43mn
    Overall bit rate                 : 948 Kbps
    
    Video
    ID                               : 1
    Format                           : AVC
    Format/Info                      : Advanced Video Codec
    Format profile                   : [email protected]
    Format settings, CABAC           : Yes
    Format settings, ReFrames        : 16 frames
    Codec ID                         : avc1
    Codec ID/Info                    : Advanced Video Coding
    Duration                         : 1h 43mn
    Bit rate mode                    : Variable
    Bit rate                         : 784 Kbps
    Width                            : 608 pixels
    Height                           : 272 pixels
    Display aspect ratio             : 2.25:1
    Frame rate mode                  : Constant
    Frame rate                       : 30.000 fps
    Color space                      : YUV
    Chroma subsampling               : 4:2:0
    Bit depth                        : 8 bits
    Scan type                        : Progressive
    Bits/(Pixel*Frame)               : 0.158
    Stream size                      : 579 MiB (83%)
    Writing library                  : x264 core 79
    
    Audio
    ID                               : 2
    Format                           : AAC
    Format/Info                      : Advanced Audio Codec
    Format profile                   : LC
    Codec ID                         : 40
    Duration                         : 1h 43mn
    Bit rate mode                    : Variable
    Bit rate                         : 160 Kbps
    Maximum bit rate                 : 205 Kbps
    Channel(s)                       : 2 channels
    Channel positions                : Front: L R
    Sampling rate                    : 48.0 KHz
    Compression mode                 : Lossy
    Stream size                      : 118 MiB (17%)
















    Credits To The Ripper [email protected] TMT [Xcellent Work Bro]
    Uploader :: Team SD

    Download Links::
    Code:
    http://www.filefactory.com/file/cda8b25/n/T.L.Arb.3D.Tml.Rip.By.Team.SD.mp4.001
    http://www.filefactory.com/file/cda8b30/n/T.L.Arb.3D.Tml.Rip.By.Team.SD.mp4.002
    http://www.filefactory.com/file/cda8b37/n/T.L.Arb.3D.Tml.Rip.By.Team.SD.mp4.003
    http://www.filefactory.com/file/cda8b4d/n/T.L.Arb.3D.Tml.Rip.By.Team.SD.mp4.004
    
    http://www.wupload.com/file/71729448
    http://www.wupload.com/file/71731610
    http://www.wupload.com/file/71730599
    http://www.wupload.com/file/71729753
    
    http://www.filesonic.com/file/1559862194
    http://www.filesonic.com/file/1559862084
    http://www.filesonic.com/file/1559860294
    http://www.filesonic.com/file/1559856634
    All Links Are Interchangeable Join Them Using HJ Split

    Single Links::
    Code:
    http://www.fileserve.com/file/dM3XyxZ
    
    http://www.filefactory.com/file/cda8b4e/n/T.L.Arb.3D.Tml.Rip.By.Team.SD.mp4
    
    http://www.wupload.com/file/71734869


    Note : The Particular Content Is Not My Own Content, Got From the Vast Internet...I Am Just Sharing It Here...If Any Prob It Will Be Removed Immediately !



 

 

Posting Permissions

  • You may not post new threads
  • You may not post replies
  • You may not post attachments
  • You may not edit your posts
  •