Results 1 to 1 of 1
  1. #1
    dR Rockers www.desirulez.net
    Join Date
    Apr 2011
    Posts
    687

    T

    Default 7am Arivu (2011) - Video Songz - MP3 Muxed - X264 - ESubs - [ Team IST ]

    Follow us on Social Media











    Code:
    Video
    ID                               : 0
    Format                           : AVC
    Format/Info                      : Advanced Video Codec
    Format profile                   : [email protected]
    Format settings, CABAC           : Yes
    Format settings, ReFrames        : 3 frames
    Codec ID                         : H264
    Duration                         : 5mn 8s
    Bit rate                         : 757 Kbps
    Width                            : 608 pixels
    Height                           : 256 pixels
    Display aspect ratio             : 2.40:1
    Frame rate mode                  : Variable
    Frame rate                       : 29.970 fps
    Color space                      : YUV
    Chroma subsampling               : 4:2:0
    Bit depth                        : 8 bits
    Scan type                        : Progressive
    Bits/(Pixel*Frame)               : 0.162
    Stream size                      : 27.8 MiB (84%)
    Writing library                  : x264 core 115
    
    
    
    ID                               : 1
    Format                           :  Audio
    Format version                   : Version 1
    Format profile                   : Layer 3
    Mode                             : Joint stereo
    Mode extension                   : MS Stereo
    Codec ID                         : 55
    Codec ID/Hint                    : MP3
    Duration                         : 5mn 7s
    Bit rate mode                    : Constant
    Bit rate                         : 128 Kbps
    Channel(s)                       : 2 channels
    Sampling rate                    : 44.1 KHz
    Compression mode                 : Lossy
    Stream size                      : 4.70 MiB (14%)
    Alignment                        : Aligned on interleaves
    Interleave, duration             : 26 ms (0.78 video frame)
    Interleave, preload duration     : 470 ms
    Writing library                  : LAME3.97














    Credits To : Team IST





    FileDino

    Code:
    http://www.filedino.com/69dexsm8f4ma
    http://www.filedino.com/uw63aq7w1dt2
    http://www.filedino.com/sdrcywasyth9
    http://www.filedino.com/prnnyvros2aw
    http://www.filedino.com/dgppi1sr6m2m
    Send My Way

    Code:
    http://www.sendmyway.com/p7bo4srwqk0u
    http://www.sendmyway.com/slw97zzvnid2
    http://www.sendmyway.com/g3shbytjkxmf
    http://www.sendmyway.com/8jyzbk9ahf9x
    http://www.sendmyway.com/v112jfqa43yi



    Wupload


    Code:
    http://www.wupload.com/file/1773301176/Yemma_Yemma.avi
    http://www.wupload.com/file/1773301136/YellaLama.avi
    http://www.wupload.com/file/1773301041/Rise_Of_Dame.avi
    http://www.wupload.com/file/1773300256/Oh_Ringa_Ringa.avi
    http://www.wupload.com/file/1773300191/Mun_Andhi.avi


    FileJungle

    Code:
    http://www.filejungle.com/f/2gGDNE/Oh_Ringa_Ringa.avi
    http://www.filejungle.com/f/jGahxk/Mun_Andhi.avi
    http://www.filejungle.com/f/CxhcQc/YellaLama.avi
    http://www.filejungle.com/f/Nmv9ge/Yemma_Yemma.avi
    http://www.filejungle.com/f/CCU3Vq/Rise_Of_Dame.avi


    Filesonic

    Code:
    http://www.filesonic.com/file/2843747855/Mun_Andhi.avi
    http://www.filesonic.com/file/2843794135/Oh_Ringa_Ringa.avi
    http://www.filesonic.com/file/2843759285/Rise_Of_Dame.avi
    http://www.filesonic.com/file/2843794055/YellaLama.avi
    http://www.filesonic.com/file/2843762135/Yemma_Yemma.avi


    Fileserve

    Code:
    http://www.fileserve.com/file/wXEVgrj/Oh_Ringa_Ringa.avi
    http://www.fileserve.com/file/r8xatFU/YellaLama.avi
    http://www.fileserve.com/file/4GBjuTs/Mun_Andhi.avi
    http://www.fileserve.com/file/Zquasr2/Yemma_Yemma.avi
    http://www.fileserve.com/file/uu7QC5h/Rise_Of_Dame.avi

 

 

Posting Permissions

  • You may not post new threads
  • You may not post replies
  • You may not post attachments
  • You may not edit your posts
  •