Results 1 to 1 of 1
  1. #1
    Super Member www.desirulez.net
    Join Date
    Aug 2011
    Posts
    385

    T

    Post Bunty Aur Babli (2005) - 4GB - DVDRip - UpscaleD - [Rombur]

    Follow us on Social Media







    Bunty Aur Babli (2005) - 4GB - DVDRip - UpscaleD - [Rombur]

    Code:
             
    
          Complete name : Bunty.aur.Babli.2005.DVD9.Upscale-Rombur.mkv
          Format : Matroska
          File size : 3.97 GiB
          Duration : 2h 43mn
          Overall bit rate : 3 471 Kbps
     Video 
          Format : AVC
          Format/Info : Advanced Video Codec
          Format profile : [email protected]
          Format settings, CABAC : Yes
          Format settings, ReFrames : 4 frames
          Muxing mode : Container [email protected]
          Codec ID : V_MPEG4/ISO/AVC
          Duration : 2h 43mn
          Bit rate : 2 954 Kbps
          Nominal bit rate : 3 000 Kbps
          Width : 1 024 pixels
          Height : 480 pixels
          Display aspect ratio : 2.2:1
          Frame rate mode : Variable
          Frame rate : 29.970 fps
          Resolution : 24 bits
          Colorimetry : 4:2:0
          Scan type : Progressive
          Bits/(Pixel*Frame) : 0.201
          Stream size : 3.37 GiB (85%)
          Writing library : x264 core 112
     Audio 
          Format : AC-3
          Format/Info : Audio Coding 3
          Codec ID : A_AC3
          Duration : 2h 43mn
          Bit rate mode : Constant
          Bit rate : 448 Kbps
          Channel(s) : 6 channels
          Channel positions : Front: L C R, Surround: L R, LFE
          Sampling rate : 48.0 KHz
          Stream size : 524 MiB (13%)
          Language : Hindi
       Text 
          Format : VobSub
          Codec ID : S_VOBSUB
          Codec ID/Info : The same subtitle format used on DVDs
          Language : English











    SINGLE LINK

    Code:
    http://www.filesonic.com/file/4198842085/Bunty.aur.Babli.2005.DVD9.Upscale-Rombur.mkv
    Code:
    http://filepost.com/files/6554c131/Bunty.aur.Babli.2005.DVD9.Upscale-Rombur.mkv
    700MB LINKS

    Code:
    http://www.filesonic.com/file/4198842095/Bunty.aur.Babli.2005.DVD9.Upscale-Rombur.mkv.001
    http://www.filesonic.com/file/4198842625/Bunty.aur.Babli.2005.DVD9.Upscale-Rombur.mkv.002
    http://www.filesonic.com/file/4198842635/Bunty.aur.Babli.2005.DVD9.Upscale-Rombur.mkv.003
    http://www.filesonic.com/file/4198842645/Bunty.aur.Babli.2005.DVD9.Upscale-Rombur.mkv.004
    http://www.filesonic.com/file/4198842655/Bunty.aur.Babli.2005.DVD9.Upscale-Rombur.mkv.005
    http://www.filesonic.com/file/4198842685/Bunty.aur.Babli.2005.DVD9.Upscale-Rombur.mkv.006
    Code:
    http://filepost.com/files/9b8fa3mb/Bunty.aur.Babli.2005.DVD9.Upscale-Rombur.mkv.001
    http://filepost.com/files/394885b7/Bunty.aur.Babli.2005.DVD9.Upscale-Rombur.mkv.002
    http://filepost.com/files/f2275cfm/Bunty.aur.Babli.2005.DVD9.Upscale-Rombur.mkv.003
    http://filepost.com/files/4bb67ded/Bunty.aur.Babli.2005.DVD9.Upscale-Rombur.mkv.004
    http://filepost.com/files/a48dedm4/Bunty.aur.Babli.2005.DVD9.Upscale-Rombur.mkv.005
    http://filepost.com/files/271474e7/Bunty.aur.Babli.2005.DVD9.Upscale-Rombur.mkv.006

 

 

Posting Permissions

  • You may not post new threads
  • You may not post replies
  • You may not post attachments
  • You may not edit your posts
  •