Results 1 to 1 of 1
  1. #1
    Super Member www.desirulez.net
    Join Date
    Jan 2011
    Posts
    495

    T

    Default TNA.Victory.Road.2011.PPV.HDTV.XviD-XS

    Follow us on Social Media







    TNA.Victory.Road.2011.PPV.HDTV.XviD-XS


    Format : AVI
    Format/Info : Audio Video Interleave
    Format profile : OpenDML
    File size : 1.43 GiB
    Duration : 2h 44mn
    Overall bit rate : 1 244 Kbps
    Writing application : Lavf51.12.1

    Video
    ID : 0
    Format : MPEG-4 Visual
    Format profile : [email protected]
    Format settings, BVOP : No
    Format settings, QPel : No
    Format settings, GMC : No warppoints
    Format settings, Matrix : Default (H.263)
    Codec ID : DX50
    Codec ID/Hint : DivX 5
    Duration : 2h 44mn
    Bit rate : 352 Kbps
    Width : 624 pixels
    Height : 352 pixels
    Display aspect ratio : 16:9
    Frame rate : 29.970 fps
    Color space : YUV
    Chroma subsampling : 4:2:0
    Bit depth : 8 bits
    Scan type : Progressive
    Bits/(Pixel*Frame) : 0.053
    Stream size : 413 MiB (28%)
    Writing library : Lavc51.40.4

    Audio
    ID : 1
    Format : MPEG Audio
    Format version : Version 1
    Format profile : Layer 3
    Mode : Joint stereo
    Mode extension : MS Stereo
    Codec ID : 55
    Codec ID/Hint : MP3
    Duration : 47mn 58s
    Bit rate mode : Constant
    Bit rate : 128 Kbps
    Channel(s) : 2 channels
    Sampling rate : 48.0 KHz
    Stream size : 43.9 MiB (3%)
    Alignment : Aligned on interleaves
    Interleave, duration : 26 ms (0.79 video frame)

    Screenshots:
    http://lulzimg.com/view/0d96f5.png
    http://lulzimg.com/i15/d0c7ae.png

    Code:
    FILESERVE
    http://www.fileserve.com/file/vNjSucG/TNA.Victory.Road.2011.PPV.HDTV.XviD-XS.avi

 

 

Posting Permissions

  • You may not post new threads
  • You may not post replies
  • You may not post attachments
  • You may not edit your posts
  •