Results 1 to 1 of 1
  1. #1

    Wink Dhana (2010) ~ 1CD ~ Xvid ~ Mp3 ~ TSK ~ Team IST

    Follow us on Social Media









    Format : AVI
    Format/Info : Audio Video Interleave
    Format profile : OpenDML
    File size : 690 MiB
    Duration : 2h 4mn
    Overall bit rate : 778 Kbps

    Video
    ID : 0
    Format : MPEG-4 Visual
    Format profile : Advanced [email protected]
    Format settings, BVOP : Yes
    Format settings, QPel : No
    Format settings, GMC : No warppoints
    Format settings, Matrix : Default (H.263)
    Codec ID : XVID
    Codec ID/Hint : XviD
    Duration : 2h 4mn
    Bit rate : 680 Kbps
    Width : 608 pixels
    Height : 272 pixels
    Display aspect ratio : 2.25:1
    Frame rate : 29.970 fps
    Color space : YUV
    Chroma subsampling : 4:2:0
    Bit depth : 8 bits
    Scan type : Progressive
    Bits/(Pixel*Frame) : 0.137
    Stream size : 603 MiB (87%)
    Writing library : XviD 1.2.1 (UTC 2008-12-04)

    Audio
    ID : 1
    Format : MPEG Audio
    Format version : Version 1
    Format profile : Layer 3
    Mode : Joint stereo
    Mode extension : MS Stereo
    Codec ID : 55
    Codec ID/Hint : MP3
    Duration : 2h 4mn
    Bit rate mode : Variable
    Bit rate : 90.5 Kbps
    Nominal bit rate : 96.0 Kbps
    Channel(s) : 2 channels
    Sampling rate : 32.0 KHz
    Stream size : 80.3 MiB (12%)
    Alignment : Aligned on interleaves
    Interleave, duration : 36 ms (1.08 video frame)












    Code:
    http://cramit.in/2f5mfxu1v42f
    http://hotfile.com/dl/100546566/8441b95/Dhana(2010)1CD.Xvid.Mp3TSK.TeamIST.avi.html

 

 

Posting Permissions

  • You may not post new threads
  • You may not post replies
  • You may not post attachments
  • You may not edit your posts
  •