Results 1 to 1 of 1
  1. #1
    Hot Member www.desirulez.net
    Join Date
    Feb 2011
    Posts
    1,189

    T

    Thumbs up Zokkomon (2011) - DVDScr - 1CDRip - XviD [TDT]

    Follow us on Social Media







    Zokkomon (2011)
    DVDscr - 1CDRip - XviD - [TDT]














    Code:
    General
    =======
    Complete name                     : Zokkomon2011_-_DVDscr-1CDRip-XviD-TDT-Up-by-BD-X_Man.avi
    IMDB                              : http://www.imdb.com/title/tt1605790/
    Format                            : AVI
    Format/Info                       : Audio Video Interleave
    File size                         : 697 MiB
    Duration                          : 1h 46mn
    Overall bit rate                  : 917 Kbps
    
    Source                            : Dvd Scr @ Team Ictv... Thnx A lot
    Ripper                            : KINGFISHER @ TDT
    
    Video
    =====
    ID                                : 0
    Format                            : MPEG-4 Visual
    Format profile                    : Advanced [email protected]
    Format settings, BVOP             : 1
    Format settings, QPel             : No
    Format settings, GMC              : No warppoints
    Format settings, Matrix           : Default (H.263)
    Muxing mode                       : Packed bitstream
    Codec ID                          : XVID
    Codec ID/Hint                     : XviD
    Duration                          : 1h 46mn
    Bit rate                          : 780 Kbps
    Width                             : 624 pixels
    Height                            : 288 pixels
    Display aspect ratio              : 2.2:1
    Frame rate                        : 23.976 fps
    Color space                       : YUV
    Chroma subsampling                : 4:2:0
    Bit depth                         : 8 bits
    Scan type                         : Progressive
    Compression mode                  : Lossy
    Bits/(Pixel*Frame)                : 0.181
    Stream size                       : 593 MiB (85%)
    Writing library                   : XviD 1.2.1 (UTC 2008-12-04)
    
    Audio
    =====
    ID                                : 1
    Format                            : MPEG Audio
    Format version                    : Version 1
    Format profile                    : Layer 3
    Mode                              : Joint stereo
    Mode extension                    : MS Stereo
    Codec ID                          : 55
    Codec ID/Hint                     : MP3
    Duration                          : 1h 46mn
    Bit rate mode                     : Constant
    Bit rate                          : 128 Kbps
    Channel(s)                        : 2 channels
    Sampling rate                     : 48.0 KHz
    Compression mode                  : Lossy
    Stream size                       : 97.3 MiB (14%)
    Alignment                         : Aligned on interleaves
    Interleave, duration              : 42 ms (1.00 video frame)
    Interleave, preload duration      : 504 ms
    Writing library                   : LAME3.98r
    Encoding settings                 : -m j -V 4 -q 2 -lowpass 17 -b 128

    All Credits Goes To TDT (Thanks)

    Single File (Size: 696.99MB)

    Code:
    http://www.fileserve.com/file/hdWXe6R/Zokkomon2011_-_DVDscr-1CDRip-XviD-TDT-Up-by-BD-X_Man.avi
    Splited Files - (Size: 399MB + 297MB)

    Code:
    http://www.filesonic.com/file/922074684/Zokkomon2011_-_DVDscr-1CDRip-XviD-TDT-Up-by-BD-X_Man.avi.001
    http://www.filesonic.com/file/922069064/Zokkomon2011_-_DVDscr-1CDRip-XviD-TDT-Up-by-BD-X_Man.avi.002
    If file removed...just reply here, i can Re-upload it any time

 

 

Posting Permissions

  • You may not post new threads
  • You may not post replies
  • You may not post attachments
  • You may not edit your posts
  •