Results 1 to 1 of 1
  1. #1
    dR Contributor www.desirulez.net
    Join Date
    Mar 2010
    Posts
    2,245

    T

    Smile Zindagi Na Milegi Dobara (2011) - 1CD DVDScr - Rip - XviD - MP3 - Esubs [TDT]

    Follow us on Social Media











    Zindagi Na Milegi Dobara (2011) - 1CD DVDScr - Rip - XviD - MP3 - Esubs [TDT]





    Format : AVI
    Format/Info : Audio Video Interleave
    File size : 708 MiB
    Duration : 2h 35mn
    Overall bit rate : 638 Kbps
    Writing application : VirtualDubMod 1.5.10.3 | www.virtualdub-fr.org || (build 2550/release)
    Writing library : VirtualDubMod build 2550/release
    Source : DvdScreener @ Team ICTV .. Thnx A LOT
    Ripper : KINGFISHER [~TDT~].

    Video
    ID : 0
    Format : MPEG-4 Visual
    Format profile : Advanced [email protected]
    Format settings, BVOP : Yes
    Format settings, QPel : No
    Format settings, GMC : No warppoints
    Format settings, Matrix : Default (H.263)
    Codec ID : XVID
    Codec ID/Hint : XviD
    Duration : 2h 35mn
    Bit rate : 548 Kbps
    Width : 624 pixels
    Height : 272 pixels
    Display aspect ratio : 2.25:1
    Frame rate : 23.976 fps
    Color space : YUV
    Chroma subsampling : 4:2:0
    Bit depth : 8 bits
    Scan type : Progressive
    Bits/(Pixel*Frame) : 0.135
    Stream size : 609 MiB (86%)
    Writing library : XviD 1.2.1 (UTC 2008-12-04)

    Audio
    ID : 1
    Format : MPEG Audio
    Format version : Version 1
    Format profile : Layer 3
    Mode : Joint stereo
    Mode extension : MS Stereo
    Codec ID : 55
    Codec ID/Hint : MP3
    Duration : 2h 35mn
    Bit rate mode : Constant
    Bit rate : 80.0 Kbps
    Channel(s) : 2 channels
    Sampling rate : 32.0 KHz
    Stream size : 88.8 MiB (13%)
    Alignment : Aligned on interleaves
    Interleave, duration : 42 ms (1.00 video frame)
    Interleave, preload duration : 504 ms
    Writing library : LAME3.98r
    Encoding settings : -m j -V 4 -q 2 -lowpass 13.5 -b 80

    All Credits Goes To Team TDT




















    Code:
    http://www.filesonic.com/file/1500345741/Zindagi_Na_milegi_Dobara_-_2011_-_Xvid_-_1CD_-__DVDScrRip_-_MP3_-_E-Subs_TDT.avi
    
    
    
    http://www.wupload.com/file/64045044/Zindagi_Na_milegi_Dobara_-_2011_-_Xvid_-_1CD_-__DVDScrRip_-_MP3_-_E-Subs_TDT.avi
    
    
    
    
    http://www.fileserve.com/file/tEKRsjU/Zindagi_Na_milegi_Dobara_-_2011_-_Xvid_-_1CD_-__DVDScrRip_-_MP3_-_E-Subs_TDT.avi




 

 

Posting Permissions

  • You may not post new threads
  • You may not post replies
  • You may not post attachments
  • You may not edit your posts
  •