Results 1 to 1 of 1
  1. #1
    Banned www.desirulez.net
    Join Date
    Jan 2010
    Posts
    2,522

    T

    Default Zindagi Na Milegi Dobara (2011) -1CD - CamRip -MPG -YAMRAAJ

    Follow us on Social Media







    Zindagi Na Milegi Dobara (2011) -1CD - CamRip -MPG -YAMRAAJ



    Format : MPEG-PS
    File size : 688 MiB
    Duration : 1h 46mn
    Overall bit rate : 903 Kbps
    Writing library : encoded by TMPGEnc Video Mastering Works 5 Version. 5.0.5.32

    Video
    ID : 224 (0xE0)
    Format : MPEG Video
    Format version : Version 1
    Format settings, BVOP : Yes
    Format settings, Matrix : Default
    Duration : 1h 46mn
    Bit rate mode : Variable
    Bit rate : 826 Kbps
    Width : 352 pixels
    Height : 288 pixels
    Display aspect ratio : 4:3
    Frame rate : 25.000 fps
    Standard : PAL
    Color space : YUV
    Bit depth : 8 bits
    Scan type : Progressive
    Compression mode : Lossy
    Bits/(Pixel*Frame) : 0.326
    Stream size : 626 MiB (91%)
    Writing library : TMPGEnc Video Mastering Works 5 Version. 5.0.5.32

    Audio
    ID : 192 (0xC0)
    Format : MPEG Audio
    Format version : Version 1
    Format profile : Layer 2
    Duration : 1h 46mn
    Bit rate mode : Constant
    Bit rate : 64.0 Kbps
    Channel(s) : 2 channels
    Sampling rate : 48.0 KHz
    Compression mode : Lossy
    Stream size : 48.8 MiB (7%)









    1GB Links


    Code:
    http://www.filesonic.com/folder/8123471
    
    OR
    
    http://www.filesonic.com/file/1453502781/ZinNagibara-2011.mpg

    Code:
    http://www.wupload.com/folder/198381
    
    
    OR
    http://www.wupload.com/file/57602453/ZinNagibara-2011.mpg

    Code:
    http://www.fileserve.com/file/pyRYf28/ZinNagibara-2011.mpg









 

 

Posting Permissions

  • You may not post new threads
  • You may not post replies
  • You may not post attachments
  • You may not edit your posts
  •