Results 1 to 1 of 1
  1. #1

    Wink Yamla Pagla Deewana (2011)900MB - 480P - DVDScr - XviD - ESubs (Single & Split Links)

    Follow us on Social Media









    Yamla Pagla Deewana (2011)480P - DVDScr - XviD - ESubs (Single&Split Links)





    General
    Complete name : YPD.mkv
    Format : Matroska
    File size : 949 MiB
    Duration : 2h 37mn
    Overall bit rate : 843 Kbps
    Writing application : Lavf52.0.0
    Writing library : Lavf52.0.0

    Video
    ID : 1
    Format : MPEG-4 Visual
    Format profile : [email protected]
    Format settings, BVOP : No
    Format settings, QPel : No
    Format settings, GMC : No warppoints
    Format settings, Matrix : Default (H.263)
    Codec ID : V_MPEG4/ISO/ASP
    Codec ID/Info : Advanced Simple Profile
    Duration : 2h 37mn
    Bit rate : 698 Kbps
    Width : 720 pixels
    Height : 320 pixels
    Display aspect ratio : 2.25:1
    Frame rate mode : Constant
    Frame rate : 24.979 fps
    Color space : YUV
    Chroma subsampling : 4:2:0
    Bit depth : 8 bits
    Scan type : Progressive
    Bits/(Pixel*Frame) : 0.121
    Stream size : 786 MiB (83%)
    Writing library : Lavc52.48.0
    Language : English

    Audio
    ID : 2
    Format : MPEG Audio
    Format version : Version 1
    Format profile : Layer 2
    Codec ID : A_MPEG/L2
    Codec ID/Hint : MP2
    Duration : 2h 37mn
    Bit rate mode : Constant
    Bit rate : 128 Kbps
    Channel(s) : 2 channels
    Sampling rate : 44.1 KHz
    Bit depth : 16 bits
    Stream size : 144 MiB (15%)
    Language : English










    SUBTITLE
    Code:
    http://www.duckload.com/download/2230715/YPD.srt
    DOWNLOAD FROM DUCKLOAD::

    SINGLE LINK::
    Code:
    http://www.duckload.com/download/2230716/YPD.mkv
    (OR)
    SPLIT LINKS - 100MB
    Code:
    http://www.duckload.com/download/2230371/YPD.mkv.001
    http://www.duckload.com/download/2230427/YPD.mkv.002
    http://www.duckload.com/download/2230450/YPD.mkv.003
    http://www.duckload.com/download/2230472/YPD.mkv.004
    http://www.duckload.com/download/2230483/YPD.mkv.005
    http://www.duckload.com/download/2230494/YPD.mkv.006
    http://www.duckload.com/download/2230500/YPD.mkv.007
    http://www.duckload.com/download/2230514/YPD.mkv.008
    http://www.duckload.com/download/2230528/YPD.mkv.009
    http://www.duckload.com/download/2230534/YPD.mkv.010
    DOWNLOAD FROM MEGAUPLOAD (SPLIT LINKS - 100Mb)::
    Code:
    http://www.megaupload.com/?d=5C88B15S
    http://www.megaupload.com/?d=MYS4KP98
    http://www.megaupload.com/?d=3EP41VKZ
    http://www.megaupload.com/?d=5I59GLCC
    http://www.megaupload.com/?d=FU5C6D39
    http://www.megaupload.com/?d=0ZFMG5HD
    http://www.megaupload.com/?d=5LID310J
    http://www.megaupload.com/?d=HQPGTQBL
    http://www.megaupload.com/?d=ZC01ETK9
    http://www.megaupload.com/?d=MHF3MDL6
    USE HJSPLIT TO JOIN FILES

    DOWNLOAD HJSPLIT - 0.33MB


    Code:
    http://www.duckload.com/download/1526932/hjsplit_24.zip

    CREDITS TO ORIGINAL RELEASER


 

 

Posting Permissions

  • You may not post new threads
  • You may not post replies
  • You may not post attachments
  • You may not edit your posts
  •