Results 1 to 2 of 2
  1. #1
    Banned www.desirulez.net
    Join Date
    May 2011
    Posts
    17

    T

    Default Thor (2011) PPVRIP IFLIX

    Follow us on Social Media







    Thor (2011) PPVRIP IFLIX








    IMDB Link
    Code:
    http://www.imdb.com/title/tt0800369/
    Information
    Code:
    Language                         : English
    Format                           : AVI
    Format/Info                      : Audio Video Interleave
    File size                        : 1.31 GiB
    Duration                         : 1h 54mn
    Overall bit rate                 : 1 639 Kbps
    
    Video
    
    ID                               : 0
    Format                           : MPEG-4 Visual
    Format settings, BVOP            : Yes
    Format settings, QPel            : No
    Format settings, GMC             : No warppoints
    Format settings, Matrix          : Default (H.263)
    Codec ID                         : DX50
    Codec ID/Hint                    : DivX 5
    Duration                         : 1h 54mn
    Bit rate                         : 1 500 Kbps
    Width                            : 640 pixels
    Height                           : 480 pixels
    Display aspect ratio             : 4:3
    Frame rate                       : 29.970 fps
    Resolution                       : 24 bits
    Colorimetry                      : 4:2:0
    Scan type                        : Progressive
    Bits/(Pixel*Frame)               : 0.163
    Stream size                      : 1.20 GiB (91%)
    Writing library                  : DivX 2151n
    
    Audio
    
    ID                               : 1
    Format                           : MPEG Audio
    Format version                   : Version 1
    Format profile                   : Layer 3
    Codec ID                         : 55
    Codec ID/Hint                    : MP3
    Duration                         : 1h 54mn
    Bit rate mode                    : Constant
    Bit rate                         : 128 Kbps
    Channel(s)                       : 2 channels
    Sampling rate                    : 48.0 KHz
    Resolution                       : 16 bits
    Stream size                      : 105 MiB (8%)
    Alignment                        : Aligned on interleaves
    Interleave, duration             : 33 ms (1.00 video frame)
    
    Release notes...
    
    Another quality release from IFLIX
    
    Video source: Ours
    
    Audio source: Ours
    
    This release also includes the scene after the credits with Nick Fury and The Cube
    
    Also, had a wee bit of signal loss at times, but this version is still very watchable.
    
    Greetings to all other groups out there. You all do awesome work and we greatly appreciate it.
    
    IFLIX


    Single Links

    Fileserve
    Code:
    http://www.fileserve.com/file/vAyGq9Y
    Rapidshare
    Code:
    https://rapidshare.com/files/3418936893/tor.ppv-rishabh.rar
    Filesonic
    Code:
    http://www.filesonic.com/file/1603777601
    Netload
    Code:
    http://netload.in/dateioT6eK2unoc/tor.ppv-rishabh.rar.htm
    Wupload
    Code:
    http://www.wupload.com/file/79444660
    X7
    Code:
    http://x7.to/bm94cu
    Uploaded
    Code:
    http://ul.to/gfby2myc

  2. #2
    Banned www.desirulez.net
    Join Date
    Apr 2011
    Posts
    892

    T

    Default

    thanks 4 sharing






 

 

Posting Permissions

  • You may not post new threads
  • You may not post replies
  • You may not post attachments
  • You may not edit your posts
  •