Results 1 to 1 of 1
  1. #1

    Default Tell Me O Khuda 1 Cd DvdScr Rip XviD Team NeXtGeN

    Follow us on Social Media







    Tell Me O Khuda 1 Cd DvdScr Rip XviD Team NeXtGeN



    Code:
    Format                           : AVI
    Format/Info                      : Audio Video Interleave
    File size                        : 646 MiB
    Duration                         : 2h 8mn
    Overall bit rate                 : 703 Kbps
    Writing library                  : VirtualDub build 32842/release
    
    Video
    ID                               : 0
    Format                           : MPEG-4 Visual
    Format profile                   : Advanced [email protected]
    Format settings, BVOP            : 1
    Format settings, QPel            : No
    Format settings, GMC             : No warppoints
    Format settings, Matrix          : Custom
    Codec ID                         : XVID
    Codec ID/Hint                    : XviD
    Duration                         : 2h 8mn
    Bit rate                         : 533 Kbps
    Width                            : 624 pixels
    Height                           : 272 pixels
    Display aspect ratio             : 2.25:1
    Frame rate                       : 23.976 fps
    Color space                      : YUV
    Chroma subsampling               : 4:2:0
    Bit depth                        : 8 bits
    Scan type                        : Progressive
    Compression mode                 : Lossy
    Bits/(Pixel*Frame)               : 0.131
    Stream size                      : 491 MiB (76%)
    Writing library                  : XviD 64
    
    Audio
    ID                               : 1
    Format                           : MPEG Audio
    Format version                   : Version 1
    Format profile                   : Layer 3
    Mode                             : Joint stereo
    Mode extension                   : MS Stereo
    Codec ID                         : 55
    Codec ID/Hint                    : MP3
    Duration                         : 2h 8mn
    Bit rate mode                    : Constant
    Bit rate                         : 160 Kbps
    Channel(s)                       : 2 channels
    Sampling rate                    : 44.1 KHz
    Compression mode                 : Lossy
    Stream size                      : 147 MiB (23%)
    Alignment                        : Split accross interleaves
    Interleave, duration             : 42 ms (1.00 video frame)
    Interleave, preload duration     : 500 ms













    SAMPLE


    Download Link

    Code:
    http://www.fileserve.com/file/G9XPWpp
    
    www.filefactory.com/file/cfa553e/n/Tell_Me_O_Khuda_-_2011_-_Dvd_Scr_Rip_XviD_-_Team_NeXtGeN.avi
    http://www.filesonic.com/file/2818400745/Tell_Me_O_Khuda_-_2011_-_Dvd_Scr_Rip_XviD_-_Team_NeXtGeN.avi
    http://filekeen.com/68qwz2zvokaj

 

 

Posting Permissions

  • You may not post new threads
  • You may not post replies
  • You may not post attachments
  • You may not edit your posts
  •