Results 1 to 1 of 1
  1. #1

    Talking Tees Maar Khan (2010) Untouched - PDVD Rip - XviD [Single Link]

    Follow us on Social Media







    Tees Maar Khan (2010) Untouched - PDVD Rip - XviD [Single Link]





    General
    Complete name : Tees Maar Khan (2010) 1CD - Untouched - PDvdRip - Team MJY.avi
    Format : AVI
    Format/Info : Audio Video Interleave
    File size : 907 MiB
    Duration : 1h 58mn
    Overall bit rate : 1 068 Kbps
    Writing application : Lavf52.0.0

    Video
    ID : 0
    Format : xvid
    Codec ID : xvid
    Duration : 1h 58mn
    Bit rate : 991 Kbps
    Width : 352 pixels
    Height : 288 pixels
    Display aspect ratio : 1.222
    Frame rate : 25.000 fps
    Standard : PAL
    Bits/(Pixel*Frame) : 0.391
    Stream size : 842 MiB (93%)

    Audio
    ID : 1
    Format : MPEG Audio
    Format version : Version 1
    Format profile : Layer 3
    Mode : Joint stereo
    Mode extension : MS Stereo
    Codec ID : 55
    Codec ID/Hint : MP3
    Duration : 1h 58mn
    Bit rate mode : Constant
    Bit rate : 64.0 Kbps
    Channel(s) : 2 channels
    Sampling rate : 48.0 KHz
    Stream size : 54.4 MiB (6%)
    Alignment : Aligned on interleaves
    Interleave, duration : 24 ms (0.60 video frame)
    Writing library : LAME3.96.1











    Code:
    http://www.duckload.com/dl/9VAO2

 

 

Posting Permissions

  • You may not post new threads
  • You may not post replies
  • You may not post attachments
  • You may not edit your posts
  •