Results 1 to 2 of 2
  1. #1
    Hot Member www.desirulez.net
    Join Date
    Sep 2011
    Posts
    509

    T

    Thumbs up Rockstar (2011) - 1GB - MC DVDscr - Xvid - MP3 - [XMR]

    Follow us on Social Media









    Code:
    Format : AVI
     Format/Info : Audio Video Interleave
     File size : 1 021 MiB
     Duration : 2h 21mn
     Overall bit rate : 1 010 Kbps
     Writing application : VirtualDubMod 1.5.10.2 (build 2542/release)
     Writing library : VirtualDubMod build 2542/release
    
     Video
     ID : 0
     Format : MPEG-4 Visual
     Format profile : Advanced [email protected]
     Format settings, BVOP : 2
     Format settings, QPel : Yes
     Format settings, GMC : No warppoints
     Format settings, Matrix : Custom
     Codec ID : XVID
     Codec ID/Hint : XviD
     Duration : 2h 21mn
     Bit rate : 873 Kbps
     Width : 656 pixels
     Height : 272 pixels
     Display aspect ratio : 2.40:1
     Frame rate : 23.976 fps
     Color space : YUV
     Chroma subsampling : 4:2:0
     Bit depth : 8 bits
     Scan type : Progressive
     Compression mode : Lossy
     Bits/(Pixel*Frame) : 0.204
     Stream size : 882 MiB (86%)
     Writing library : XviD 1.2.1 (UTC 2008-12-04)
    
     Audio
     ID : 1
     Format : MPEG Audio
     Format version : Version 1
     Format profile : Layer 3
     Mode : Joint stereo
     Mode extension : MS Stereo
     Codec ID : 55
     Codec ID/Hint : MP3
     Duration : 2h 21mn
     Bit rate mode : Constant
     Bit rate : 128 Kbps
     Channel(s) : 2 channels
     Sampling rate : 48.0 KHz
     Compression mode : Lossy
     Stream size : 129 MiB (13%)
     Alignment : Aligned on interleaves
     Interleave, duration : 42 ms (1.00 video frame)
     Interleave, preload duration : 504 ms
     Writing library : LAME3.98r







    Credits to ""XMR"



    Code:
    http://www.fileserve.com/file/hJCFzgY
    http://www.filesonic.com/file/3906107954/
    Last edited by karar; 11-19-2011 at 04:36 PM.

  2. #2
    Hot Member www.desirulez.net
    Join Date
    Sep 2011
    Posts
    509

    T

    Default

    fileserve Link Upload Again...

 

 

Posting Permissions

  • You may not post new threads
  • You may not post replies
  • You may not post attachments
  • You may not edit your posts
  •