Results 1 to 1 of 1
  1. #1
    Hot Member www.desirulez.net
    Join Date
    Feb 2011
    Posts
    1,189

    T

    Thumbs up Rockstar (2011) - 1CD - MC DVDScr - PDVDRip - XviD - MP3 [TDT]

    Follow us on Social Media




    300


    336
    Rockstar
    1CD - MC DVDScr - PDVDRip - XviD - MP3 [TDT]
    (2011)


    Code:
    Format : AVI
    Format/Info : Audio Video Interleave
    File size : 695 MiB
    Duration : 2h 22mn
    Overall bit rate : 683 Kbps
    
    Video
    ID : 0
    Format : MPEG-4 Visual
    Format profile : Advanced [email protected]
    Format settings, BVOP : 2
    Format settings, QPel : Yes
    Format settings, GMC : No warppoints
    Format settings, Matrix : Default (H.263)
    Codec ID : XVID
    Codec ID/Hint : XviD
    Duration : 2h 22mn
    Bit rate : 567 Kbps
    Width : 656 pixels
    Height : 240 pixels
    Display aspect ratio : 2.733
    Frame rate : 23.976 fps
    Color space : YUV
    Chroma subsampling : 4:2:0
    Bit depth : 8 bits
    Scan type : Progressive
    Compression mode : Lossy
    Bits/(Pixel*Frame) : 0.150
    Stream size : 577 MiB (83%)
    Writing library : XviD 1.2.1 (UTC 2008-12-04)
    
    Audio
    ID : 1
    Format : MPEG Audio
    Format version : Version 1
    Format profile : Layer 3
    Mode : Joint stereo
    Mode extension : MS Stereo
    Codec ID : 55
    Codec ID/Hint : MP3
    Duration : 2h 22mn
    Bit rate mode : Constant
    Bit rate : 80.0 Kbps
    Channel(s) : 2 channels
    Sampling rate : 32.0 KHz
    Compression mode : Lossy
    Stream size : 81.4 MiB (12%)
    Alignment : Aligned on interleaves
    Title : 1cd T80 2_0ch 192Kbps DELAY 0ms
    Writing library : LAME3.98r
    
    
    Thnxx & Credit to MC & ICTv Source

















    All Credits Goes To Happy @ TDT (Thanks)

    Single File (Size: 695.32 MB)

    Code:
    http://www.fileserve.com/file/GFpvKDm/R0ckstar2011_-_1CD-MC-DVDScr-PDVDRip-XviD-MP3-Happy-TDT.avi
    or
    http://www.filesonic.com/file/3567214095/R0ckstar2011_-_1CD-MC-DVDScr-PDVDRip-XviD-MP3-Happy-TDT.avi
    or
    http://www.wupload.com/file/2303656587/R0ckstar2011_-_1CD-MC-DVDScr-PDVDRip-XviD-MP3-Happy-TDT.avi
    If file removed...just reply here, i can Re-upload it any time

 

 

Posting Permissions

  • You may not post new threads
  • You may not post replies
  • You may not post attachments
  • You may not edit your posts
  •