Results 1 to 1 of 1
  1. #1
    Hot Member www.desirulez.net
    Join Date
    Feb 2011
    Posts
    1,189

    T

    Thumbs up Rockstar (2011) - 1/5 MC DVDScr - XviD - MP3 - 1GB [ExD|XMR]

    Follow us on Social Media







    Rockstar
    1/5 MC DVDScr - XviD - 1GB [ExD|XMR]
    (2011)


    Code:
    Movie : Rockstar
    Year : 2011
    Language : Hindi
    Ripper : Ajit @ ExD|XMR
    Source : Movie Club (MC Scr)
    MC Watermark : Removed
    Runtime : 2hrs 21min 17Sec
    IMDB : http://www.imdb.com/title/tt1839596/
    
    Format : AVI
    Format/Info : Audio Video Interleave
    File size : 1 021 MiB
    Duration : 2h 21mn
    Overall bit rate : 1 010 Kbps
    Writing application : VirtualDubMod 1.5.10.2 (build 2542/release)
    Writing library : VirtualDubMod build 2542/release
    
    Video
    ID : 0
    Format : MPEG-4 Visual
    Format profile : Advanced Si[email protected]
    Format settings, BVOP : 2
    Format settings, QPel : Yes
    Format settings, GMC : No warppoints
    Format settings, Matrix : Custom
    Codec ID : XVID
    Codec ID/Hint : XviD
    Duration : 2h 21mn
    Bit rate : 873 Kbps
    Width : 656 pixels
    Height : 272 pixels
    Display aspect ratio : 2.40:1
    Frame rate : 23.976 fps
    Color space : YUV
    Chroma subsampling : 4:2:0
    Bit depth : 8 bits
    Scan type : Progressive
    Compression mode : Lossy
    Bits/(Pixel*Frame) : 0.204
    Stream size : 882 MiB (86%)
    Writing library : XviD 1.2.1 (UTC 2008-12-04)
    
    Audio
    ID : 1
    Format : MPEG Audio
    Format version : Version 1
    Format profile : Layer 3
    Mode : Joint stereo
    Mode extension : MS Stereo
    Codec ID : 55
    Codec ID/Hint : MP3
    Duration : 2h 21mn
    Bit rate mode : Constant
    Bit rate : 128 Kbps
    Channel(s) : 2 channels
    Sampling rate : 48.0 KHz
    Compression mode : Lossy
    Stream size : 129 MiB (13%)
    Alignment : Aligned on interleaves
    Interleave, duration : 42 ms (1.00 video frame)
    Interleave, preload duration : 504 ms
    Writing library : LAME3.98r
    Ripper : Ajit @ ExD|XMR
    Source : Movie Club
    Runtime : 2hrs 21min 17Sec















    XMR Encode! Enjoy! Better source better rip! 1GB XViD rip as promised, runtime is shorter dan CAM rlz earlier ... don't know wats missing. Work done ... VDO - Tattoo removal, denosing, colour coding (Black and Blue has been turned into more natural colours). Audio - removed a min odd clip from d beginning and synced, rest just normalizing. CAM, Screener or PDVD ur call.

    All Credits Goes To Team ExD|XMR (Thanks)

    Single File (Size: 1020.76 MB)

    Code:
    http://www.fileserve.com/file/dqCnUCm/RockZZZzz2011_-_1-5-MC-DVDScr-XviD-MP3-1GB-ExD-XMR.avi
    or
    http://www.filesonic.com/file/3663216764/RockZZZzz2011_-_1-5-MC-DVDScr-XviD-MP3-1GB-ExD-XMR.avi
    
    Big file upload fail in wupload.com (Tried Web, Remote and FTP Upload)
    Split Files (Size: 400MB + 400MB + 220MB)
    Links are Interchangeable


    Code:
    http://www.fileserve.com/file/PtgACgF/RockZZZzz2011_-_1-5-MC-DVDScr-XviD-MP3-1GB-ExD-XMR.avi.001
    http://www.fileserve.com/file/qJVHdQQ/RockZZZzz2011_-_1-5-MC-DVDScr-XviD-MP3-1GB-ExD-XMR.avi.002
    http://www.fileserve.com/file/7Qcabau/RockZZZzz2011_-_1-5-MC-DVDScr-XviD-MP3-1GB-ExD-XMR.avi.003
    or
    http://www.filesonic.com/file/3663194094/RockZZZzz2011_-_1-5-MC-DVDScr-XviD-MP3-1GB-ExD-XMR.avi.001
    http://www.filesonic.com/file/3663194034/RockZZZzz2011_-_1-5-MC-DVDScr-XviD-MP3-1GB-ExD-XMR.avi.002
    http://www.filesonic.com/file/3663189714/RockZZZzz2011_-_1-5-MC-DVDScr-XviD-MP3-1GB-ExD-XMR.avi.003
    or
    http://www.wupload.com/file/2320655217/RockZZZzz2011_-_1-5-MC-DVDScr-XviD-MP3-1GB-ExD-XMR.avi.001
    http://www.wupload.com/file/2320795142/RockZZZzz2011_-_1-5-MC-DVDScr-XviD-MP3-1GB-ExD-XMR.avi.002
    http://www.wupload.com/file/2320662997/RockZZZzz2011_-_1-5-MC-DVDScr-XviD-MP3-1GB-ExD-XMR.avi.003
    If file removed...just reply here, i can Re-upload it any time

 

 

Posting Permissions

  • You may not post new threads
  • You may not post replies
  • You may not post attachments
  • You may not edit your posts
  •