Results 1 to 1 of 1
  1. #1
    Hot Member www.desirulez.net
    Join Date
    Jan 2011
    Posts
    1,881

    T

    Thumbs up Rockstar (2011) - 1/5 MC DVDScr - XviD - AC3 - 900MB [TDT]

    Follow us on Social Media







    Rockstar (2011) - 1/5 MC DVDScr - XviD - AC3 - 900MB [TDT]

    Code:
    General
    Complete name : Rockstar(2011) - Xvid - DvdScr Rip - AC3 - TDT.avi
    IMDB : www.imdb.com/title/tt1839596/
    Format : AVI
    Format/Info : Audio Video Interleave
    File size : 896 MiB
    Duration : 2h 22mn
    Overall bit rate : 880 Kbps
    Writing application : VirtualDubMod 1.5.10.3 | www.virtualdub-fr.org || (build 2550/release)
    Writing library : VirtualDubMod build 2550/release
    Source : DvDScr @ Team ICTV .. Thnx A LOT
    Ripper : KINGFISHER [~TDT~].
    
    
    Video
    ID : 0
    Format : MPEG-4 Visual
    Format profile : Advanced [email protected]
    Format settings, BVOP : 1
    Format settings, QPel : No
    Format settings, GMC : No warppoints
    Format settings, Matrix : Default (H.263)
    Muxing mode : Packed bitstream
    Codec ID : XVID
    Codec ID/Hint : XviD
    Duration : 2h 22mn
    Bit rate : 743 Kbps
    Width : 656 pixels
    Height : 272 pixels
    Display aspect ratio : 2.40:1
    Frame rate : 23.976 fps
    Color space : YUV
    Chroma subsampling : 4:2:0
    Bit depth : 8 bits
    Scan type : Progressive
    Compression mode : Lossy
    Bits/(Pixel*Frame) : 0.174
    Stream size : 756 MiB (84%)
    Writing library : XviD 1.2.1 (UTC 2008-12-04)
    
    Audio
    ID : 1
    Format : AC-3
    Format/Info : Audio Coding 3
    Mode extension : CM (complete main)
    Codec ID : 2000
    Duration : 2h 22mn
    Bit rate mode : Constant
    Bit rate : 128 Kbps
    Channel(s) : 2 channels
    Channel positions : Front: L R
    Sampling rate : 48.0 KHz
    Bit depth : 16 bits
    Compression mode : Lossy
    Stream size : 130 MiB (15%)
    Alignment : Split accross interleaves
    Interleave, duration : 42 ms (1.00 video frame)
    Interleave, preload duration : 500 ms















    Code:
    http://www.filesonic.com/file/4020902435/R0ckstar2011_-_1-5-MC-DVDScr-XviD-AC3-900MB-TDT.avi
    OR
    http://www.wupload.com/file/2587733107/R0ckstar2011_-_1-5-MC-DVDScr-XviD-AC3-900MB-TDT.avi
    OR
    http://www.fileserve.com/file/678ZkpZ/R0ckstar2011_-_1-5-MC-DVDScr-XviD-AC3-900MB-TDT.avi
    OR
    http://www.filejungle.com/f/a9ZXNB/R0ckstar2011_-_1-5-MC-DVDScr-XviD-AC3-900MB-TDT.avi

 

 

Posting Permissions

  • You may not post new threads
  • You may not post replies
  • You may not post attachments
  • You may not edit your posts
  •