Results 1 to 1 of 1
  1. #1
    Hot Member www.desirulez.net
    Join Date
    Feb 2011
    Posts
    1,189

    T

    Thumbs up Ready (2011) - 1CD - MC Scr - Rip - XviD - MP3 - Esubs [TDT]

    Follow us on Social Media







    Ready (2011)
    1CD - MC Screener - Rip
    XviD - MP3 - Esubs [TDT]
    Enjoy Better Quality Rip by TDT
















    Code:
    General
    =======
    Complete name                   : Ready2011_-_1CD-MC-Scr-Rip-XviD-MP3-TDT-Up-by-BD-X_Man.avi
    IMDB                            : www.imdb.com/title/tt1708532/
    Format                          : AVI
    Format/Info                     : Audio Video Interleave
    File size                       : 696 MiB
    Duration                        : 2h 20mn
    Overall bit rate                : 693 Kbps
    Writing application             : VirtualDubMod 1.5.10.3 | www.virtualdub-fr.org || (build 2550/release)
    Writing library                 : VirtualDubMod build 2550/release
    Source                          : Mc-Screener @ Team Ictv... Thnx A lot
    Ripper                          : KINGFISHER [~TDT~].
    Sample                          : http://www.sendspace.com/file/6jbx85
    
    Video
    =====
    ID                              : 0
    Format                          : MPEG-4 Visual
    Format profile                  : Advanced [email protected]
    Format settings, BVOP           : Yes
    Format settings, QPel           : No
    Format settings, GMC            : No warppoints
    Format settings, Matrix         : Default (H.263)
    Muxing mode                     : Packed bitstream
    Codec ID                        : XVID
    Codec ID/Hint                   : XviD
    Duration                        : 2h 20mn
    Bit rate                        : 587 Kbps
    Width                           : 624 pixels
    Height                          : 272 pixels
    Display aspect ratio            : 2.25:1
    Frame rate                      : 23.976 fps
    Color space                     : YUV
    Chroma subsampling              : 4:2:0
    Bit depth                       : 8 bits
    Scan type                       : Progressive
    Bits/(Pixel*Frame)              : 0.144
    Stream size                     : 590 MiB (85%)
    Writing library                 : XviD 1.2.1 (UTC 2008-12-04)
    
    Audio
    =====
    ID                              : 1
    Format                          : MPEG Audio
    Format version                  : Version 1
    Format profile                  : Layer 3
    Mode                            : Joint stereo
    Mode extension                  : MS Stereo
    Codec ID                        : 55
    Codec ID/Hint                   : MP3
    Duration                        : 2h 20mn
    Bit rate mode                   : Constant
    Bit rate                        : 96.0 Kbps
    Channel(s)                      : 2 channels
    Sampling rate                   : 32.0 KHz
    Stream size                     : 96.5 MiB (14%)
    Alignment                       : Aligned on interleaves
    Interleave, duration            : 42 ms (1.00 video frame)
    Interleave, preload duration    : 504 ms
    Writing library                 : LAME3.98r
    Encoding settings               : -m j -V 4 -q 2 -lowpass 15.1 -b 96
    All Credits Goes To Team TDT (Thanks)

    Single File (Size: 696.01MB)

    Code:
    http://www.fileserve.com/file/XhAFdsG/Ready2011_-_1CD-MC-Scr-Rip-XviD-MP3-TDT-Up-by-BD-X_Man.avi
    
    or
    
    http://www.filesonic.com/file/1173098544/Ready2011_-_1CD-MC-Scr-Rip-XviD-MP3-TDT-Up-by-BD-X_Man.avi
    Esubs

    Code:
    http://www.fileserve.com/file/E7NWQX4/Ready2011_-_1CD-MC-Scr-Rip-XviD-MP3-TDT-Up-by-BD-X_Man.srt
    If file removed...just reply here, i can Re-upload it any time

 

 

Posting Permissions

  • You may not post new threads
  • You may not post replies
  • You may not post attachments
  • You may not edit your posts
  •