Results 1 to 2 of 2
  1. #1
    Hot Member www.desirulez.net
    Join Date
    Feb 2011
    Location
    Bulletproof IP
    Posts
    1,189

    T

    Thumbs up RA.One (2011) - 1CD MC DVDScr Rip - XviD - MP3 - 700MB [TDT]

    Follow us on Social Media







    RA.One (2011)
    1CD MC DVDScr Rip - XviD - MP3 - [TDT]



    Code:
    Ripper : Happy @ TDT
    
    Format : AVI
    Format/Info : Audio Video Interleave
    File size : 702 MiB
    Duration : 2h 33mn
    Overall bit rate mode : Variable
    Overall bit rate : 641 Kbps
    
    Video
    ID : 0
    Format : MPEG-4 Visual
    Format profile : Advanced [email protected]
    Format settings, BVOP : 2
    Format settings, QPel : No
    Format settings, GMC : No warppoints
    Format settings, Matrix : Default (H.263)
    Codec ID : XVID
    Codec ID/Hint : XviD
    Duration : 2h 33mn
    Bit rate : 523 Kbps
    Width : 608 pixels
    Height : 272 pixels
    Display aspect ratio : 2.25:1
    Frame rate : 23.976 fps
    Color space : YUV
    Chroma subsampling : 4:2:0
    Bit depth : 8 bits
    Scan type : Progressive
    Compression mode : Lossy
    Bits/(Pixel*Frame) : 0.132
    Stream size : 573 MiB (82%)
    Writing library : XviD 1.2.1 (UTC 2008-12-04)
    
    Audio
    ID : 1
    Format : MPEG Audio
    Format version : Version 1
    Format profile : Layer 3
    Mode : Joint stereo
    Mode extension : MS Stereo
    Codec ID : 55
    Codec ID/Hint : MP3
    Duration : 2h 33mn
    Bit rate mode : Variable
    Bit rate : 105 Kbps
    Channel(s) : 2 channels
    Sampling rate : 48.0 KHz
    Compression mode : Lossy
    Stream size : 115 MiB (16%)
    Alignment : Aligned on interleaves
    Interleave, duration : 24 ms (0.58 video frame)
    Interleave, preload duration : 525 ms
    
    Thnxx & Credit To MC & Team









    All Credits Goes To Happy @ TDT (Thanks)

    Single File (Size: 702.44 MB)

    Code:
    http://www.fileserve.com/file/rctDT9H/Reporter_tu_kitne_bar_Report_karega_yeh_RA.One2011_-_1CD-MC-DVDScr-Rip-XviD-MP3-TDT.avi
    or
    http://www.filesonic.com/file/2843741525/Reporter_tu_kitne_bar_Report_karega_yeh_RA.One2011_-_1CD-MC-DVDScr-Rip-XviD-MP3-TDT.avi
    or
    http://www.wupload.com/file/1772395726/Reporter_tu_kitne_bar_Report_karega_yeh_RA.One2011_-_1CD-MC-DVDScr-Rip-XviD-MP3-TDT.avi
    If file removed...just reply here, i can Re-upload it any time

  2. #2
    New Arrivals
    Join Date
    Nov 2011
    Posts
    1

    T

    Default

    none of the links work

 

 

Posting Permissions

  • You may not post new threads
  • You may not post replies
  • You may not post attachments
  • You may not edit your posts
  •