Results 1 to 1 of 1
  1. #1
    dR Contributor www.desirulez.net
    Join Date
    Jan 2011
    Posts
    2,299

    T

    Smile Pyaar Ka Punchnama (2011) - 1CD - DVDScr - Xvid - MP3 - [IcTv Exclusive]

    Follow us on Social Media









    Format : AVI
    Format/Info : Audio Video Interleave
    File size : 657 MiB
    Duration : 2h 20mn
    Overall bit rate : 653 Kbps

    Video
    Format : MPEG-4 Visual
    Format settings, BVOP : No
    Format settings, QPel : No
    Format settings, GMC : No warppoints
    Format settings, Matrix : Default
    Codec ID : XVID
    Codec ID/Hint : XviD
    Duration : 2h 20mn
    Bit rate : 519 Kbps
    Width : 608 pixels
    Height : 272 pixels
    Display aspect ratio : 2.25
    Frame rate : 25.000 fps
    Resolution : 24 bits
    Colorimetry : 4:2:0
    Scan type : Progressive
    Bits/(Pixel*Frame) : 0.125
    Stream size : 522 MiB (79%)
    Writing library : ZJMedia MPEG Encoder

    Audio
    Format : MPEG Audio
    Format version : Version 1
    Format profile : Layer 3
    Codec ID : 55
    Codec ID/Hint : MP3
    Duration : 2h 20mn
    Bit rate mode : Constant
    Bit rate : 128 Kbps
    Channel(s) : 2 channels
    Sampling rate : 44.1 KHz
    Resolution : 16 bits
    Stream size : 129 MiB (20%)
    Alignment : Split accross interleaves
    Interleave, duration : 1000 ms (25.00 video frames)
    Language : Hindi

    Source : DDR
    Screens







    Credits to 'IcTv"



    Code:
    http://cramit.in/7exzhj34q45l
    Last edited by desi_don; 05-31-2011 at 05:10 AM. Reason: Proper screenshots added

 

 

Posting Permissions

  • You may not post new threads
  • You may not post replies
  • You may not post attachments
  • You may not edit your posts
  •