Results 1 to 1 of 1
  1. #1
    Hot Member www.desirulez.net
    Join Date
    Feb 2011
    Posts
    1,189

    T

    Thumbs up Murder 2 (2011) - MCScr - Rip - XviD - MP3 - Esubs - [TDT]

    Follow us on Social Media







    Murder 2 (2011)
    MCScr - Rip - XviD - MP3 - Esubs - [TDT]





    Code:
    General
    Complete name : Murder 2 - 2011 - Xvid - 1CD - McScr-Rip - Mp3 - E-subs - TDT.avi
    IMDB : www.imdb.com/title/tt1918965/
    Format : AVI
    Format/Info : Audio Video Interleave
    File size : 695 MiB
    Duration : 2h 2mn
    Overall bit rate : 793 Kbps
    Writing application : VirtualDubMod 1.5.10.3 | www.virtualdub-fr.org || (build 2550/release)
    Writing library : VirtualDubMod build 2550/release
    Source : Mc-Screener @ Team Ictv... Thnx A lot
    Ripper : KINGFISHER [~TDT~].
    
    Sample : http://www.sendspace.com/file/p5orlh
    
    Video
    ID : 0
    Format : MPEG-4 Visual
    Format profile : Advanced [email protected]
    Format settings, BVOP : Yes
    Format settings, QPel : No
    Format settings, GMC : No warppoints
    Format settings, Matrix : Default (H.263)
    Muxing mode : Packed bitstream
    Codec ID : XVID
    Codec ID/Hint : XviD
    Duration : 2h 2mn
    Bit rate : 656 Kbps
    Width : 624 pixels
    Height : 272 pixels
    Display aspect ratio : 2.25:1
    Frame rate : 23.976 fps
    Color space : YUV
    Chroma subsampling : 4:2:0
    Bit depth : 8 bits
    Scan type : Progressive
    Bits/(Pixel*Frame) : 0.161
    Stream size : 575 MiB (83%)
    Writing library : XviD 1.2.1 (UTC 2008-12-04)
    
    Audio
    ID : 1
    Format : MPEG Audio
    Format version : Version 1
    Format profile : Layer 3
    Mode : Joint stereo
    Mode extension : MS Stereo
    Codec ID : 55
    Codec ID/Hint : MP3
    Duration : 2h 2mn
    Bit rate mode : Constant
    Bit rate : 128 Kbps
    Channel(s) : 2 channels
    Sampling rate : 48.0 KHz
    Stream size : 112 MiB (16%)
    Alignment : Aligned on interleaves
    Interleave, duration : 42 ms (1.00 video frame)
    Interleave, preload duration : 504 ms
    Writing library : LAME3.98r
    Encoding settings : -m j -V 4 -q 2 -lowpass 17 -b 128
















    All Credits Goes To TDT (Thanks)

    Single File (Size: 695.24 MB)

    Code:
    http://www.fileserve.com/file/pbYTPRU/Murder2_2011_-_MCScr-Rip-XviD-MP3-TDT-Up-by-BD-X_Man.avi
    
    or
    
    http://www.filesonic.com/file/1441285044/Murder2_2011_-_MCScr-Rip-XviD-MP3-TDT-Up-by-BD-X_Man.avi
    Esubs

    Code:
    http://www.fileserve.com/file/y2fhGfy/Murder2_2011_-_MCScr-Rip-XviD-MP3-TDT-Up-by-BD-X_Man.srt
    
    or
    
    http://www.filesonic.com/file/1441406664/Murder2_2011_-_MCScr-Rip-XviD-MP3-TDT-Up-by-BD-X_Man.srt
    If file removed...just reply here, i can Re-upload it any time

 

 

Posting Permissions

  • You may not post new threads
  • You may not post replies
  • You may not post attachments
  • You may not edit your posts
  •