Results 1 to 1 of 1
  1. #1
    Hot Member www.desirulez.net
    Join Date
    Feb 2011
    Location
    Bulletproof IP
    Posts
    1,189

    T

    Thumbs up Mausam (2011) - MC DVDScr - 1GB - Rip - XviD - ESub - [ExD|XMR]

    Follow us on Social Media







    Mausam (2011)
    MC DVDScr - 1GB - Rip - XviD - ESub - [ExD|XMR]


    Code:
    Format : AVI
    Format/Info : Audio Video Interleave
    File size : 998 MiB
    Duration : 2h 46mn
    Overall bit rate : 839 Kbps
    Writing application : VirtualDubMod 1.5.10.2 (build 2542/release)
    Writing library : VirtualDubMod build 2542/release
    
    Video
    ID : 0
    Format : MPEG-4 Visual
    Format profile : Advanced [email protected]
    Format settings, BVOP : 2
    Format settings, QPel : Yes
    Format settings, GMC : No warppoints
    Format settings, Matrix : Custom
    Codec ID : XVID
    Codec ID/Hint : XviD
    Duration : 2h 46mn
    Bit rate : 750 Kbps
    Width : 640 pixels
    Height : 272 pixels
    Display aspect ratio : 2.35:1
    Frame rate : 23.976 fps
    Color space : YUV
    Chroma subsampling : 4:2:0
    Bit depth : 8 bits
    Scan type : Progressive
    Compression mode : Lossy
    Bits/(Pixel*Frame) : 0.180
    Stream size : 892 MiB (89%)
    Writing library : XviD 1.2.1 (UTC 2008-12-04)
    
    Audio
    ID : 1
    Format : MPEG Audio
    Format version : Version 1
    Format profile : Layer 3
    Mode : Joint stereo
    Mode extension : MS Stereo
    Codec ID : 55
    Codec ID/Hint : MP3
    Duration : 2h 46mn
    Bit rate mode : Constant
    Bit rate : 80.0 Kbps
    Channel(s) : 2 channels
    Sampling rate : 32.0 KHz
    Compression mode : Lossy
    Stream size : 95.2 MiB (10%)
    Alignment : Aligned on interleaves
    Interleave, duration : 42 ms (1.00 video frame)
    Interleave, preload duration : 504 ms
    Ripper : Ajit @ ExD|XMR
    Source : DUS-MCSCreener(Thanx!)
    Runtime : 2hrs 46min 18Sec
    Subs : English(Custom Synced)


    XMR Encode! Wid no offenses to anyone's rip around, higher bitrate ... 2 get my filters 2 work @ optimal potential. A little higher wud hav been just right but DVD is going to be out very soon anyway. Enjoy! till den, work - usual treatment as wid any DVD Source(nice up!), custom Tweaks, colour levels adjustments and other settings 4 dis output. D duration is diff from d source, I hav removed d 3 min odd trailer from d beginning. Dis happened after encoding so d final rip is now under 1GB.














    All Credits Goes To ExD|XMR (Thanks)

    Single File (Size: 998.26 MB)

    Code:
    http://www.fileserve.com/file/WprhWbr/Mausam2011_-_MC-DVDScr-1GB-Rip-XviD-ExD-XMR.avi
    or
    http://www.filesonic.com/file/2208345604/Mausam2011_-_MC-DVDScr-1GB-Rip-XviD-ExD-XMR.avi
    or
    http://www.wupload.com/file/210110734/Mausam2011_-_MC-DVDScr-1GB-Rip-XviD-ExD-XMR.avi
    Split Files (Size: 500MB + 498MB)

    Code:
    http://www.fileserve.com/file/8txhBjM/Mausam2011_-_MC-DVDScr-1GB-Rip-XviD-ExD-XMR.avi.001
    http://www.fileserve.com/file/8QQTt48/Mausam2011_-_MC-DVDScr-1GB-Rip-XviD-ExD-XMR.avi.002
    or
    http://www.filesonic.com/file/2208393954/Mausam2011_-_MC-DVDScr-1GB-Rip-XviD-ExD-XMR.avi.001
    http://www.filesonic.com/file/2208397654/Mausam2011_-_MC-DVDScr-1GB-Rip-XviD-ExD-XMR.avi.002
    or
    http://www.wupload.com/file/210113450/Mausam2011_-_MC-DVDScr-1GB-Rip-XviD-ExD-XMR.avi.001
    http://www.wupload.com/file/210113453/Mausam2011_-_MC-DVDScr-1GB-Rip-XviD-ExD-XMR.avi.002
    English Subtitles

    Code:
    http://www.fileserve.com/file/YAaWuAj/Mausam2011_-_MC-DVDScr-1GB-Rip-XviD-ExD-XMR.srt
    or
    http://www.filesonic.com/file/2208430531/Mausam2011_-_MC-DVDScr-1GB-Rip-XviD-ExD-XMR.srt
    or
    http://www.wupload.com/file/210120787/Mausam2011_-_MC-DVDScr-1GB-Rip-XviD-ExD-XMR.srt
    Sample

    Code:
    http://www.4shared.com/video/XyNKwh7P/Mausam_1GB_-_Sample.html
    If file removed...just reply here, i can Re-upload it any time

 

 

Posting Permissions

  • You may not post new threads
  • You may not post replies
  • You may not post attachments
  • You may not edit your posts
  •