Results 1 to 2 of 2
  1. #1
    Hot Member www.desirulez.net
    Join Date
    Mar 2009
    Posts
    561

    T

    Angry Not a Love Story (2011) - 1CD - DVD - SCR - Rip - [SAIF] - [TDT]

    Follow us on Social Media












    CLICK THE IMAGES TO VIEW ITS FULL SIZE







    Code:
    Bit rate                         : 765 Kbps
    Width                            : 624 pixels
    Height                           : 272 pixels
    Display aspect ratio             : 2.25:1
    Frame rate                       : 23.976 fps
    Color space                      : YUV
    Chroma subsampling               : 4:2:0
    Bit depth                        : 8 bits
    Scan type                        : Interlaced
    Scan order                       : Bottom Field First
    Compression mode                 : Lossy
    Bits/(Pixel*Frame)               : 0.188
    Stream size                      : 570 MiB (85%)
    Writing library                  : XviD 1.2.1 (UTC 2008-12-04)
    
    Audio
    ID                               : 1
    Format                           : MPEG Audio
    Format version                   : Version 1
    Format profile                   : Layer 3
    Mode                             : Joint stereo
    Codec ID                         : 55
    Codec ID/Hint                    : MP3
    Duration                         : 1h 44mn
    Bit rate mode                    : Constant
    Bit rate                         : 128 Kbps
    Channel(s)                       : 2 channels
    Sampling rate                    : 48.0 KHz
    Compression mode                 : Lossy
    Stream size                      : 95.4 MiB (14%)
    Alignment                        : Split accross interleaves
    Interleave, duration             : 42 ms (1.00 video frame)
    Interleave, preload duration     : 500 ms
    Writing library                  : LAME3.98r
    Encoding settings                : -m j -V 4 -q 2 -lowpass 17 -b 128
    CREDIT TO TDT


    DOWNLOAD:

    Single Links

    Code:
    http://cramit.in/daw995m8fkmw
    
    Or
    
    http://www.wupload.com/file/116787831

    Plz Buy A Premium Account From My Link To Support My Upload






  2. #2
    Hot Member www.desirulez.net
    Join Date
    Mar 2009
    Posts
    561

    T

    Default


 

 

Posting Permissions

  • You may not post new threads
  • You may not post replies
  • You may not post attachments
  • You may not edit your posts
  •