Results 1 to 1 of 1
  1. #1
    Banned www.desirulez.net
    Join Date
    Jan 2010
    Posts
    2,522

    T

    Thumbs up No One Killed Jessica - 1cd PDVDrip - XVID - Esubs + Sinle Link

    Follow us on Social Media







    No One Killed Jessica - 1cd PDVDrip - XVID - Esubs + Sinle Link











    Cast :

    Rani Mukerji, Vidya Balan

    Synopsis :



    New Delhi, 1999. The guns at Kargil are still blazing when another one goes off, this time in the nation's capital. Jessica, a young attractive model trying her hand at bartending, is shot dead at a celebrity party. Her crime refusing to serve a drink after closing hours! The culprit Manish, son of a prominent politician, inebriated by a deadly ****tail of alcohol and a sense of entitlement, pulls the trigger in a fit of rage. With 300 of Delhi's swish set present at the party, many of whom are witnesses to the murder, Manish looks all set to go to the gallows. Except, that it doesn't quite turn out that way! Now two women, Jessica's sister, Sabrina and the feisty TV reporter, Meera will have to drum up every resource at their disposal to outwit Manish at his own game, if the truth is to have any chance of prevailing over money and political clout.

    DVD Information






    Ripper: Apka Salman

    Source: DUS ka Warehouse

    Sample: sample.avi

    General
    Complete name : C:\Users\Sallu\Desktop\No One Killed Jessica - 1cd PDVDrip - XVID - Esubs - {Team DUS}\No One Killed Jessica - 1cd PDVDrip - XVID - Esubs - {Team DUS}.avi
    Format : AVI
    Format/Info : Audio Video Interleave
    Format profile : OpenDML
    File size : 689 MiB
    Duration : 2h 14mn
    Overall bit rate : 715 Kbps
    Writing application : AVI-Mux GUI 1.17.8.3, Feb 16 201019:42:50

    Video
    ID : 0
    Format : MPEG-4 Visual
    Format profile : Advanced [email protected]
    Format settings, BVOP : Yes
    Format settings, QPel : No
    Format settings, GMC : No warppoints
    Format settings, Matrix : Default (H.263)
    Codec ID : XVID
    Codec ID/Hint : XviD
    Duration : 2h 14mn
    Bit rate : 624 Kbps
    Width : 640 pixels
    Height : 272 pixels
    Display aspect ratio : 2.35:1
    Frame rate : 29.970 fps
    Color space : YUV
    Chroma subsampling : 4:2:0
    Bit depth : 8 bits
    Scan type : Progressive
    Bits/(Pixel*Frame) : 0.120
    Stream size : 602 MiB (87%)
    Writing library : XviD 1.2.1 (UTC 2008-12-04)

    Audio
    ID : 1
    Format : MPEG Audio
    Format version : Version 1
    Format profile : Layer 3
    Mode : Joint stereo
    Mode extension : MS Stereo
    Codec ID : 55
    Codec ID/Hint : MP3
    Duration : 2h 14mn
    Bit rate mode : Variable
    Bit rate : 83.1 Kbps
    Nominal bit rate : 96.0 Kbps
    Channel(s) : 2 channels
    Sampling rate : 32.0 KHz
    Stream size : 80.0 MiB (12%)
    Alignment : Aligned on interleaves
    Interleave, duration : 36 ms (1.08 video frame)
    Interleave, preload duration : 235 ms
    Title : VTS_01_1 T80 2_0ch 256Kbps DELAY 0ms_new
    Writing library : LAME3.98r
    Encoding settings : -m j -V 4 -q 2 -lowpass 15.1 --


















    SAMPLE VIDEO



    Code:
    http://www.fileserve.com/file/P6njc6w/No.One.Killed.Jessica.2011.1cd.PDVDrip.SAMPLE.By.Deejam.rar
    
    or
    
    http://www.duckload.com/download/2704592/No.One.Killed.Jessica.2011.1cd.PDVDrip.SAMPLE.By.Deejam.rar





    Sinle Link 700MB




    Code:
    http://www.fileserve.com/file/sPsAw6Y/No.One.Killed.Jessica.2011.1cd.PDVDrip.XVID.Esubs.By.Deejam.rar



    Code:
    http://www.filesonic.com/file/53780628/No.One.Killed.Jessica.2011.1CD.Scam.Xvid.MP3.By.Deejam.rar


    Code:
    http://www.duckload.com/download/2704781/No.One.Killed.Jessica.2011.1cd.PDVDrip.XVID.Esubs.By.Deejam.rar




    200MB Links







    Code:
    http://www.fileserve.com/file/Ac2EYxz/No.One.Killed.Jessica.2011.1cd.PDVDrip.XVID.Esubs.By.Deejam.part1.rar
    http://www.fileserve.com/file/mvrgnj9/No.One.Killed.Jessica.2011.1cd.PDVDrip.XVID.Esubs.By.Deejam.part2.rar
    http://www.fileserve.com/file/xnbukBg/No.One.Killed.Jessica.2011.1cd.PDVDrip.XVID.Esubs.By.Deejam.part3.rar
    http://www.fileserve.com/file/NZcdST9/No.One.Killed.Jessica.2011.1cd.PDVDrip.XVID.Esubs.By.Deejam.part4.rar


    Code:
    http://www.filesonic.com/file/54533763/No.One.Killed.Jessica.2011.1cd.PDVDrip.XVID.Esubs.By.Deejam.part1.rar
    http://www.filesonic.com/file/54533851/No.One.Killed.Jessica.2011.1cd.PDVDrip.XVID.Esubs.By.Deejam.part2.rar
    http://www.filesonic.com/file/54533849/No.One.Killed.Jessica.2011.1cd.PDVDrip.XVID.Esubs.By.Deejam.part3.rar
    http://www.filesonic.com/file/54533565/No.One.Killed.Jessica.2011.1cd.PDVDrip.XVID.Esubs.By.Deejam.part4.rar


    Code:
    http://www.duckload.com/download/2704746/No.One.Killed.Jessica.2011.1cd.PDVDrip.XVID.Esubs.By.Deejam.part1.rar
    http://www.duckload.com/download/2704654/No.One.Killed.Jessica.2011.1cd.PDVDrip.XVID.Esubs.By.Deejam.part2.rar
    http://www.duckload.com/download/2704706/No.One.Killed.Jessica.2011.1cd.PDVDrip.XVID.Esubs.By.Deejam.part3.rar
    http://www.duckload.com/download/2704617/No.One.Killed.Jessica.2011.1cd.PDVDrip.XVID.Esubs.By.Deejam.part4.rar


 

 

Posting Permissions

  • You may not post new threads
  • You may not post replies
  • You may not post attachments
  • You may not edit your posts
  •