Results 1 to 1 of 1
  1. #1
    dR Rockers www.desirulez.net
    Join Date
    May 2011
    Posts
    136

    T

    Default Jihne Mera Dil Luteya (2011) DVDScr XVID [TDT]

    Follow us on Social Media











    Release Date: 29 July, 2011.
    Directer: Navdeep Singh
    Producer: Kumar S. Taurani
    StarCast: Gippy Grewal, Neeru Bajwa, Diljit Dosanjh, Deep Dhillon


    General

    Format : AVI
    Format/Info : Audio Video Interleave
    File size : 703.77 MiB
    Duration : 2h 7mn
    Overall bit rate : 760 Kbps

    Video

    Format : MPEG-4 Visual
    Format settings, Matrix : Default (H.263)
    Codec ID : XVID
    Duration : 2h 7mn
    Bit rate : 659 Kbps
    Width : 640 pixels
    Height : 256 pixels
    Display aspect ratio : 2.500
    Frame rate : 23.976 fps
    Color space : YUV
    Chroma subsampling : 4:2:0
    Bit depth : 8 bits
    Scan type : Progressive
    Stream size : 603 MiB (87%)
    Writing library : XviD 1.2.1

    Audio

    Format : MPEG Audio
    Format version : Version 1
    Format profile : Layer 3
    Mode : Joint stereo
    Mode extension : MS Stereo
    Codec ID/Hint : MP3
    Duration : 2h 7mn
    Bit rate mode : Constant
    Bit rate : 96.0 Kbps
    Channel(s) : 2 channels
    Sampling rate : 32.0 KHz
    Stream size : 87.8 MiB (13%)
    Alignment : Aligned on interleaves
    Title : AUDIO1
    Writing library : LAME3.98r












    FILESERVE
    Code:
    http://www.fileserve.com/file/JF2eAYc
    http://www.fileserve.com/file/hY4YfTg
    WUPLOAD
    Code:
    http://www.wupload.com/file/110234127
    http://www.wupload.com/file/110233938
    FILESONIC
    Code:
    http://www.filesonic.com/file/1698305811/J.M.D.L_SAMPLE.rar
    http://www.filesonic.com/file/1698305921/J.M.D.L_Backup.rar
    UPLOAD-STATION
    Code:
    http://www.uploadstation.com/file/RTfbgpp
    http://www.uploadstation.com/file/GHMeGHW
    PS. ALWAYS CHECK THE SAMPLE FIRST.

    Legend Killer... !!!

 

 

Posting Permissions

  • You may not post new threads
  • You may not post replies
  • You may not post attachments
  • You may not edit your posts
  •