Results 1 to 1 of 1
  1. #1
    Super Member www.desirulez.net
    Join Date
    Apr 2010
    Posts
    110

    T

    Cool HELP (2010) - 1CD - DvDScr RiP - XViD - MP3 - tHuNdEr

    Follow us on Social Media









    Format : AVI
    Format/Info : Audio Video Interleave
    File size : 696 MiB
    Duration : 1h 51mn
    Overall bit rate : 877 Kbps

    Video

    Format : MPEG-4 Visual
    Format settings, GMC : No warppoints
    Format settings, Matrix : Default (H.263)
    Codec ID : XVID
    Duration : 1h 51mn
    Bit rate : 777 Kbps
    Width : 624 pixels
    Height : 288 pixels
    Display aspect ratio : 2.2:1
    Frame rate : 23.976 fps
    Bit depth : 8 bits
    Scan type : Progressive
    Bits/(Pixel*Frame) : 0.180
    Stream size : 617 MiB (89%)
    Writing library : XviD 1.2.1 (UTC 2008-12-04)

    Audio

    Format : MPEG Audio
    Format profile : Layer 3
    Mode : Joint stereo
    Codec ID/Hint : MP3
    Duration : 1h 51mn
    Bit rate mode : Constant
    Bit rate : 96.0 Kbps
    Channel(s) : 2 channels
    Sampling rate : 44.1 KHz
    Stream size : 76.2 MiB (11%)

    Ripper........RD @ TDBB
    Source........DvDScr @ DUS








    Code:
    http://hotfile.com/dl/62456331/cce9695/PLSSHELP.2010.1CD.DVDScr.Mp3.tHuNdEr.avi.001.html
    http://hotfile.com/dl/62456425/b6807ca/PLSSHELP.2010.1CD.DVDScr.Mp3.tHuNdEr.avi.002.html
    http://hotfile.com/dl/62456520/6eefb77/PLSSHELP.2010.1CD.DVDScr.Mp3.tHuNdEr.avi.003.html
    http://hotfile.com/dl/62456615/184a387/PLSSHELP.2010.1CD.DVDScr.Mp3.tHuNdEr.avi.004.html


    Join the files using HJ-Split

    Code:
    http://www.ziddu.com/download/11199566/hjsplit_SHO_ThUnDeR.rar.html



 

 

Posting Permissions

  • You may not post new threads
  • You may not post replies
  • You may not post attachments
  • You may not edit your posts
  •