Results 1 to 1 of 1
  1. #1
    Junior Member
    Join Date
    Oct 2010
    Posts
    4

    T

    Default Guzaarish 2010 MC SCR PDVDRip - Subs -{ XMR }

    Follow us on Social Media








    Guzaarish ( 2010 )






    General
    Complete name : Guzaarish -2010
    Format : AVI
    Format/Info : Audio Video Interleave
    Format profile : OpenDML
    File size : 682 MiB
    Duration : 35s 100ms
    Overall bit rate : 163 Mbps


    Video
    ID : 0
    Format : MPEG-4 Visual
    Codec ID : XVID
    Codec ID/Hint : XviD
    Duration : 34s 868ms
    Bit rate : 164 Kbps
    Width : 640 pixels
    Height : 288 pixels
    Display aspect ratio : 2.222
    Frame rate : 23.976 fps
    Color space : YUV
    Chroma subsampling : 4:2:0
    Bits/(Pixel*Frame) : 0.037
    Stream size : 697 KiB (0%)

    Audio
    ID : 1
    Format : MPEG Audio
    Codec ID : 55
    Codec ID/Hint : MP3
    Duration : 35s 100ms
    Bit rate : 96.0 Kbps
    Channel(s) : 2 channels
    Sampling rate : 32.0 KHz
    Stream size : 411 KiB (0%)
    Alignment : Aligned on interleaves
    Interleave, duration : 969 ms (23.22 video frames)
    Interleave, preload duration : 216 ms












    MediaFire Download Links
    MegaUpload Download Links


    Sub


 

 

Posting Permissions

  • You may not post new threads
  • You may not post replies
  • You may not post attachments
  • You may not edit your posts
  •