Results 1 to 1 of 1
  1. #1
    Hot Member www.desirulez.net
    Join Date
    Oct 2011
    Posts
    536

    T

    Thumbs up Ek Main Aur Ekk Tu (2012) - 15 Xvid - DvdScrRip - AC3 - E-Subs - [TDT]

    Follow us on Social Media







    Ek Main Aur Ekk Tu (2012) - 15 Xvid - DvdScrRip - AC3 - E-Subs - [TDT]



    Ek Main Aur Ekk Tu (2012) - 1/5 Xvid - DvdScrRip - AC3 - E-Subs - [TDT]





    -----SCREENS-----




    [img]http://img545.imageshack.us/img545/1228/vlcsnap2012021218h47m56.png/img]









    -----INFO-----
    Code:
    General
    Complete name : Ek Main Aur Ekk Tu (2012) - Xvid - DvdScrRip - AC3 - E-Subs - [TDT].avi
    Format : AVI
    File size : 896 MiB
    Duration : 1h 46mn
    Overall bit rate : 1 171 Kbps
    Source : DvDScr @ Team ICTV.
    Ripper : KINGFISHER [~TDT~].
    
    
    Video
    
    Muxing mode : Packed bitstream
    Codec ID : XVID
    Duration : 1h 46mn
    Bit rate : 1 034 Kbps
    Width : 688 pixels
    Height : 272 pixels
    Display aspect ratio : 2.529
    Frame rate : 23.976 fps
    Color space : YUV
    Scan type : Progressive
    Bits/(Pixel*Frame) : 0.230
    Stream size : 790 MiB (88%)
    
    Audio
    Format : AC-3
    Duration : 1h 46mn
    Bit rate mode : Constant
    Bit rate : 128 Kbps
    Channel(s) : 2 channels
    Sampling rate : 48.0 KHz
    Stream size : 97.9 MiB (11%)
    -----SAMPLE-----
    Code:
    http://ul.to/deftzr5x/Ek.Main.Aur.Ekk.Tu.(2012)-Xvid-DvdScrRip-AC3-E-Subs-[TDT]-Sample2.avi
    http://ul.to/6cacpt4u/Ek.Main.Aur.Ekk.Tu.(2012)-Xvid-DvdScrRip-AC3-E-Subs-[TDT]-Sample1.avi
    http://extabit.com/file/29gwmap6ch3ex/Ek.Main.Aur.Ekk.Tu.(2012)-Xvid-DvdScrRip-AC3-E-Subs-[TDT]-Sample1.avi
    http://extabit.com/file/29gwmap6ch3fd/Ek.Main.Aur.Ekk.Tu.(2012)-Xvid-DvdScrRip-AC3-E-Subs-[TDT]-Sample2.avi
    -----DOWNLOAD-----

    -----SINGLE LINK [914.06 MB]-----

    UPLOADED
    Code:
    http://ul.to/8z5skv1f/Ek.Main.Aur.Ekk.Tu.(2012)-Xvid-DvdScrRip-AC3-E-Subs-[TDT].avi
    
    http://ul.to/i1wxq6mu/Ek.Main.Aur.Ekk.Tu.(2012)-Xvid-DvdScrRip-AC3-E-Subs-[TDT].srt
    EXTABIT
    Code:
    http://extabit.com/file/29gwmap6gulbt/Ek.Main.Aur.Ekk.Tu.(2012)-Xvid-DvdScrRip-AC3-E-Subs-[TDT].avi
    
    http://extabit.com/file/29gwmap6ch3ft/Ek.Main.Aur.Ekk.Tu.(2012)-Xvid-DvdScrRip-AC3-E-Subs-[TDT].srt

 

 

Posting Permissions

  • You may not post new threads
  • You may not post replies
  • You may not post attachments
  • You may not edit your posts
  •