Results 1 to 3 of 3
  1. #1
    Hot Member www.desirulez.net
    Join Date
    Feb 2011
    Posts
    1,189

    T

    Default Ek Main Aur Ekk Tu (2012) - 1/5 DVDScr - Rip - XviD - AC3 - E-Subs - 900MB - [TDT]

    Follow us on Social Media







    Ek Main Aur Ekk Tu
    1/5 DVDScr - Rip - XviD - AC3 - E-Subs - 900MB - [TDT]
    (2012)





    Full Caps



















    Code:
    General
    Complete name : EkMainAurEkkTu2012_-_1-5-DVDScr-Rip-XviD-AC3-900MB-TDT.avi
    Format : AVI
    File size : 896 MiB
    Duration : 1h 46mn
    Overall bit rate : 1 171 Kbps
    Source : DvDScr @ Team ICTV.
    Ripper : KINGFISHER [~TDT~].
    
    Video
    Muxing mode : Packed bitstream
    Codec ID : XVID
    Duration : 1h 46mn
    Bit rate : 1 034 Kbps
    Width : 688 pixels
    Height : 272 pixels
    Display aspect ratio : 2.529
    Frame rate : 23.976 fps
    Color space : YUV
    Scan type : Progressive
    Bits/(Pixel*Frame) : 0.230
    Stream size : 790 MiB (88%)
    
    Audio
    Format : AC-3
    Duration : 1h 46mn
    Bit rate mode : Constant
    Bit rate : 128 Kbps
    Channel(s) : 2 channels
    Sampling rate : 48.0 KHz
    Stream size : 97.9 MiB (11%)
    All Credits Goes To KingFisher @ TDT (Thanks)

    Single File (Size: 895.52 MB)

    Code:
    http://ul.to/92p2s7mo/EkMainAurEkkTu2012_-_1-5-DVDScr-Rip-XviD-AC3-900MB-TDT.avi
    or
    http://turbobit.net/qbkvknml1ps8/EkMainAurEkkTu2012_-_1-5-DVDScr-Rip-XviD-AC3-900MB-TDT.avi.html
    or
    http://extabit.com/file/27a2mc0ipa2em/EkMainAurEkkTu2012_-_1-5-DVDScr-Rip-XviD-AC3-900MB-TDT.avi
    English Subtitles

    Code:
    http://turbobit.net/2z1d58zo15gn/EkMainAurEkkTu2012_-_1-5-DVDScr-Rip-XviD-AC3-900MB-TDT.srt.html
    or
    http://extabit.com/file/27a2mc0ip9pta/EkMainAurEkkTu2012_-_1-5-DVDScr-Rip-XviD-AC3-900MB-TDT.srt
    If file removed...just reply here, i can Re-upload it any time

  2. #2
    New Arrivals
    Join Date
    Feb 2012
    Posts
    2

    T

    Default

    Hi,

    Looks like Uploaded.to and Turbobit Files are removed. Please repost and update link.

    Thnx.

    Sud

  3. #3
    New Arrivals
    Join Date
    Feb 2012
    Posts
    2

    T

    Default

    Hello Kingfisher,

    Will you please update the links please.

 

 

Posting Permissions

  • You may not post new threads
  • You may not post replies
  • You may not post attachments
  • You may not edit your posts
  •