Results 1 to 1 of 1
  1. #1
    Hot Member www.desirulez.net
    Join Date
    Feb 2011
    Posts
    1,189

    T

    Thumbs up Double Dhamaal (2011) - 1/5 DVDScr - XviD - Esubs - 892MB {ExD|XMR|ExS}

    Follow us on Social Media







    Double Dhamaal (2011)
    1/5 DVDScr - XviD - Esubs
    {ExD|XMR|ExS}


    Ripper : Ajit @ Team ExD|XMR|ExS
    Source : Screener by Studio(Thanx!)
    Runtime : 2hrs 14min 45secs
    Subtitle : English

    All new rip since nothing better came up, fresh encode wid higher bitrate 4 filters 2 genrate a decent output. Enjoy! XMR Encode!

    Format : AVI
    Format/Info : Audio Video Interleave
    File size : 892 MiB
    Duration : 2h 14mn
    Overall bit rate : 926 Kbps
    Writing application : VirtualDubMod 1.5.10.2 (build 2542/release)
    Writing library : VirtualDubMod build 2542/release

    Video
    ID : 0
    Format : MPEG-4 Visual
    Format profile : Advanced [email protected]
    Format settings, BVOP : 2
    Format settings, QPel : Yes
    Format settings, GMC : No warppoints
    Format settings, Matrix : Default (MPEG)
    Codec ID : XVID
    Codec ID/Hint : XviD
    Duration : 2h 14mn
    Bit rate : 836 Kbps
    Width : 624 pixels
    Height : 272 pixels
    Display aspect ratio : 2.25:1
    Frame rate : 23.976 fps
    Color space : YUV
    Chroma subsampling : 4:2:0
    Bit depth : 8 bits
    Scan type : Progressive
    Compression mode : Lossy
    Bits/(Pixel*Frame) : 0.206
    Stream size : 806 MiB (90%)
    Writing library : XviD 1.2.1 (UTC 2008-12-04)

    Audio
    ID : 1
    Format : MPEG Audio
    Format version : Version 1
    Format profile : Layer 3
    Mode : Joint stereo
    Mode extension : MS Stereo
    Codec ID : 55
    Codec ID/Hint : MP3
    Duration : 2h 14mn
    Bit rate mode : Constant
    Bit rate : 80.0 Kbps
    Channel(s) : 2 channels
    Sampling rate : 32.0 KHz
    Compression mode : Lossy
    Stream size : 77.1 MiB (9%)
    Alignment : Aligned on interleaves
    Interleave, duration : 42 ms (1.00 video frame)
    Interleave, preload duration : 504 ms
    Writing library : LAME3.98r
















    All Credits Goes To Team ExD|XMR|ExS (Thanks)

    Single File (Size: 892.27 MB)

    Code:
    http://www.fileserve.com/file/G9zHBgM/DoubleDhamaal2011_-_1-5-DVDScr-XviD-Team-ExD-XMR-ExS-Up-by-BD-X_Man.avi
    
    or
    
    http://www.filesonic.com/file/1335825114/DoubleDhamaal2011_-_1-5-DVDScr-XviD-Team-ExD-XMR-ExS-Up-by-BD-X_Man.avi
    Split Files (Size: 447MB + 445MB)
    Links are Interchangeable


    Code:
    http://www.fileserve.com/file/ZBUGyAg/DoubleDhamaal2011_-_1-5-DVDScr-XviD-Team-ExD-XMR-ExS-Up-by-BD-X_Man.avi.001
    http://www.fileserve.com/file/AxjXuJj/DoubleDhamaal2011_-_1-5-DVDScr-XviD-Team-ExD-XMR-ExS-Up-by-BD-X_Man.avi.002
    
    or
    
    http://www.filesonic.com/file/1335818464/DoubleDhamaal2011_-_1-5-DVDScr-XviD-Team-ExD-XMR-ExS-Up-by-BD-X_Man.avi.001
    http://www.filesonic.com/file/1335818194/DoubleDhamaal2011_-_1-5-DVDScr-XviD-Team-ExD-XMR-ExS-Up-by-BD-X_Man.avi.002
    Esubs

    Code:
    http://www.fileserve.com/file/qAma8NX/DoubleDhamaal2011_-_1-5-DVDScr-XviD-Team-ExD-XMR-ExS-Up-by-BD-X_Man.srt
    If file removed...just reply here, i can Re-upload it any time

 

 

Posting Permissions

  • You may not post new threads
  • You may not post replies
  • You may not post attachments
  • You may not edit your posts
  •