Results 1 to 1 of 1
  1. #1
    Hot Member www.desirulez.net
    Join Date
    Feb 2011
    Location
    Bulletproof IP
    Posts
    1,189

    T

    Thumbs up Delhi Belly (2011) - 1CD DVDScr - Rip - XviD - MP3 - Esubs [TDT]

    Follow us on Social Media







    Delhi Belly (2011)
    1CD DVDScr - Rip - XviD - MP3 - Esubs [TDT]





    Clickable thumbnail view


















    Code:
    General Complete name : Delhi Belly - 2011 - Xvid - 1CD - DvdScr-Rip - Mp3 - E-subs - TDT.avi IMDB : http://www.imdb.com/title/tt1934231/ Format : AVI Format/Info : Audio Video Interleave File size : 688 MiB Duration : 1h 39mn Overall bit rate : 962 Kbps Writing application : VirtualDubMod 1.5.10.3 | www.virtualdub-fr.org || (build 2550/release) Writing library : VirtualDubMod build 2550/release Source : DvD Screener @ Team Ictv ... Thnx A Lot Ripper : KINGFISHER [TDT]. Video ID : 0 Format : MPEG-4 Visual Format profile : Advanced [email protected] Format settings, BVOP : Yes Format settings, QPel : No Format settings, GMC : No warppoints Format settings, Matrix : Default (H.263) Muxing mode : Packed bitstream Codec ID : XVID Codec ID/Hint : XviD Duration : 1h 39mn Bit rate : 857 Kbps Width : 624 pixels Height : 288 pixels Display aspect ratio : 2.2:1 Frame rate : 23.976 fps Color space : YUV Chroma subsampling : 4:2:0 Bit depth : 8 bits Scan type : Progressive Bits/(Pixel*Frame) : 0.199 Stream size : 612 MiB (89%) Writing library : XviD 1.2.1 (UTC 2008-12-04) Audio ID : 1 Format : MPEG Audio Format version : Version 1 Format profile : Layer 3 Mode : Joint stereo Codec ID : 55 Codec ID/Hint : MP3 Duration : 1h 39mn Bit rate mode : Constant Bit rate : 96.0 Kbps Channel(s) : 2 channels Sampling rate : 32.0 KHz Stream size : 68.6 MiB (10%) Alignment : Aligned on interleaves Interleave, duration : 42 ms (1.00 video frame) Interleave, preload duration : 504 ms Writing library : LAME3.98r Encoding settings : -m j -V 4 -q 2 -lowpass 15.1 -b 96
    All Credits Goes To Team TDT (Thanks)

    Single File (Size: 687.78 MB)

    Code:
    http://www.fileserve.com/file/55dhGky/D3lhiB3lly2011_-_1CD-DVDScr-Rip-XviD-MP3-TDT-Up-by-BD-X_Man.avi
    
    or
    
    http://www.filesonic.com/file/1378270464/D3lhiB3lly2011_-_1CD-DVDScr-Rip-XviD-MP3-TDT-Up-by-BD-X_Man.avi
    Esubs

    Code:
    http://www.fileserve.com/file/2hcNwv9/D3lhiB3lly2011_-_1CD-DVDScr-Rip-XviD-MP3-TDT-Up-by-BD-X_Man.srt
    
    or
    
    http://www.filesonic.com/file/1378303164/D3lhiB3lly2011_-_1CD-DVDScr-Rip-XviD-MP3-TDT-Up-by-BD-X_Man.srt
    If file removed...just reply here, i can Re-upload it any time

 

 

Posting Permissions

  • You may not post new threads
  • You may not post replies
  • You may not post attachments
  • You may not edit your posts
  •