Results 1 to 1 of 1
  1. #1
    dR Contributor www.desirulez.net
    Join Date
    Feb 2011
    Posts
    482

    T

    Default Bodyguard (2011) - 1/5 DVDscr - XviD - Esubs - 890MB [ExD|XMR]

    Follow us on Social Media







    Bodyguard (2011) - 1/5 DVDscr - XviD - Esubs - 890MB [ExD|XMR]





    Movie : BodyGuard
    Year : 2011
    IMDB : Bodyguard (2011) - IMDb
    Cast : Salman Kahan, Kareena Kapoor
    Ripper : Ajit @ ExD|XMR
    Size : 890MB(1/5 DVD)
    Source : DUS(Thanx!)
    Runtime : 2hrs 08min 46Sec
    Subtitles : English
    Sample : Bodyguard Rip2 - Sample.avi - 4shared.com - file sharing - download movie file
    Format : AVI
    Format/Info : Audio Video Interleave
    File size : 890 MiB
    Duration : 2h 8mn
    Overall bit rate : 966 Kbps
    VideoID : 0
    Format : MPEG-4 Visual
    Format profile : Advanced [email protected]
    Format settings, BVOP : 2
    Format settings, QPel : Yes
    Format settings, GMC : No warppoints
    Format settings, Matrix : Default (MPEG)
    Codec ID : XVID
    Codec ID/Hint : XviD
    Duration : 2h 8mn
    Bit rate : 877 Kbps
    Width : 640 pixels
    Height : 272 pixels
    Display aspect ratio : 2.35:1
    Frame rate : 23.976 fps
    Color space : YUVChroma
    subsampling : 4:2:0Bit
    depth : 8 bits
    Scan type : Progressive
    Compression mode : Lossy
    Bits/(Pixel*Frame) : 0.210
    Stream size : 808 MiB (91%)
    Writing library : XviD 1.2.1 (UTC 2008-12-04)
    AudioID : 1
    Format : MPEG Audio
    Format version : Version 1
    Format profile : Layer 3
    Mode : Joint stereo
    Mode extension : MS Stereo
    Codec ID : 55
    Codec ID/Hint : MP3
    Duration : 2h 8mn
    Bit rate mode : Constant
    Bit rate : 80.0 Kbps
    Channel(s) : 2 channels
    Sampling rate : 32.0 KHz
    Compression mode : Lossy
    Stream size : 73.7 MiB (8%)
    Alignment : Aligned on interleavesInterleave,
    duration : 42 ms (1.00 video frame)
    Writing library : LAME3.98r






    Movie Link::

    Code:
    http://www.filesonic.com/file/1956292661/Bodyguard2011_-_1-5-DVDscr-XviD-Esubs-890MB-ExD-XMR.avi
    
    http://www.wupload.com/file/165426267/Bodyguard2011_-_1-5-DVDscr-XviD-Esubs-890MB-ExD-XMR.avi
    
    http://www.fileserve.com/file/qbbbc2V

 

 

Posting Permissions

  • You may not post new threads
  • You may not post replies
  • You may not post attachments
  • You may not edit your posts
  •