Results 1 to 2 of 2
  1. #1
    dR Contributor www.desirulez.net
    Join Date
    Jan 2011
    Posts
    2,299

    T

    Smile Bbuddah Hoga Terra Baap (2011) - 1CD - DVDscr - MPEG - [NickkDon]

    Follow us on Social Media









    Format : MPEG-PS
    File size : 648 MiB
    Duration : 1h 54mn
    Overall bit rate : 788 Kbps

    Video
    ID : 224 (0xE0)
    Format : MPEG Video
    Format version : Version 2
    Format profile : [email protected]
    Format settings, BVOP : Yes
    Format settings, Matrix : Default
    Format settings, GOP : M=3, N=12
    Duration : 1h 54mn
    Bit rate mode : Variable
    Bit rate : 708 Kbps
    Nominal bit rate : 1 150 Kbps
    Width : 352 pixels
    Height : 288 pixels
    Display aspect ratio : 4:3
    Frame rate : 25.000 fps
    Standard : PAL
    Color space : YUV
    Chroma subsampling : 4:2:0
    Bit depth : 8 bits
    Scan type : Progressive
    Compression mode : Lossy
    Bits/(Pixel*Frame) : 0.279
    Stream size : 582 MiB (90%)

    Audio
    ID : 192 (0xC0)
    Format : MPEG Audio
    Format version : Version 1
    Format profile : Layer 2
    Duration : 1h 54mn
    Bit rate mode : Constant
    Bit rate : 64.0 Kbps
    Channel(s) : 2 channels
    Sampling rate : 48.0 KHz
    Compression mode : Lossy
    Stream size : 52.6 MiB (8%)





    Code:
    http://cramit.in/zfr4kej92qfp
    OR

    Code:
    http://www.filesonic.com/file/1368210661
    OR

    Code:
    http://www.wupload.com/file/43400674/

  2. #2
    Administrators www.desirulez.net
    Join Date
    Mar 2010
    Posts
    9,872

    T

    Default


 

 

Posting Permissions

  • You may not post new threads
  • You may not post replies
  • You may not post attachments
  • You may not edit your posts
  •