Results 1 to 2 of 2
  1. #1
    Hot Member www.desirulez.net
    Join Date
    Feb 2011
    Location
    Bulletproof IP
    Posts
    1,189

    T

    Thumbs up Aarakshan (2011) - 1/5 DVDScr - Rip - XviD - AC3 - 895MB [TDT]

    Follow us on Social Media







    Aarakshan (2011)
    1/5 DVDScr - Rip - XviD - AC3 - 895MB [TDT]


    Code:
    General
    Complete name : Aarakshan (2011) - Xvid - DvdScr-Rip - AC3 - TDT.avi
    IMDB : www.imdb.com/title/tt1848771/
    Format : AVI
    Format/Info : Audio Video Interleave
    File size : 896 MiB
    Duration : 2h 38mn
    Overall bit rate : 788 Kbps
    Writing application : VirtualDubMod 1.5.10.3 | www.virtualdub-fr.org || (build 2550/release)
    Writing library : VirtualDubMod build 2550/release
    Source : DvdScreener @ Team ICTV .. Thnx A LOT
    Ripper : KINGFISHER [~TDT~].
    Sample : http://www.sendspace.com/file/p6eh20
    
    Video
    ID : 0
    Format : MPEG-4 Visual
    Format profile : Advanced [email protected]
    Format settings, BVOP : 1
    Format settings, QPel : No
    Format settings, GMC : No warppoints
    Format settings, Matrix : Default (H.263)
    Muxing mode : Packed bitstream
    Codec ID : XVID
    Codec ID/Hint : XviD
    Duration : 2h 38mn
    Bit rate : 651 Kbps
    Width : 656 pixels
    Height : 288 pixels
    Display aspect ratio : 2.25:1
    Frame rate : 23.976 fps
    Color space : YUV
    Chroma subsampling : 4:2:0
    Bit depth : 8 bits
    Scan type : Progressive
    Compression mode : Lossy
    Bits/(Pixel*Frame) : 0.144
    Stream size : 739 MiB (83%)
    Writing library : XviD 1.2.1 (UTC 2008-12-04)
    
    Audio
    ID : 1
    Format : AC-3
    Format/Info : Audio Coding 3
    Mode extension : CM (complete main)
    Codec ID : 2000
    Duration : 2h 38mn
    Bit rate mode : Constant
    Bit rate : 128 Kbps
    Channel(s) : 2 channels
    Channel positions : Front: L R
    Sampling rate : 48.0 KHz
    Bit depth : 16 bits
    Compression mode : Lossy
    Stream size : 145 MiB (16%)
    Alignment : Split accross interleaves
    Interleave, duration : 42 ms (1.00 video frame)
    Interleave, preload duration : 500 ms














    All Credits Goes To TDT (Thanks)

    Single File (Size: 895.54 MB)

    Code:
    http://www.fileserve.com/file/USZy6Zt/Aarakshan2011_-_1-5-DVDScr-Rip-XviD-AC3-895MB-TDT.avi
    
    or
    
    http://www.filesonic.com/file/1688701484/Aarakshan2011_-_1-5-DVDScr-Rip-XviD-AC3-895MB-TDT.avi
    
    or
    
    http://www.wupload.com/file/104612713/Aarakshan2011_-_1-5-DVDScr-Rip-XviD-AC3-895MB-TDT.avi
    If file removed...just reply here, i can Re-upload it any time

  2. #2
    RIP-Mate, You ll be Remembered:) www.desirulez.netwww.desirulez.net
    Join Date
    Feb 2011
    Posts
    1,613

    T

    Default

    ThanX...............

 

 

Posting Permissions

  • You may not post new threads
  • You may not post replies
  • You may not post attachments
  • You may not edit your posts
  •