Results 1 to 2 of 2
  1. #1

    Default WWF - Triple H & Chyna - It's Our Time

    Follow us on Social Media







    WWF - Triple H & Chyna - It's Our Time




    The story of Chyna and Triple H's rise to fame. Includes behind the scenes footage.

    Format: PAL
    VHS Release Date: 17 April 2000
    Run Time: 64 minutes

    Will work in most XviD/DivX Players. (Tested on Sony DAV-DZ830 Multi-Region)

    (Images have been down-sized)



    Format : AVI
    Format/Info : Audio Video Interleave
    File size : 700 MiB
    Duration : 1h 6mn
    Overall bit rate : 1 481 Kbps
    Writing application : VirtualDubMod 1.5.4.1 (build 2178/release)
    Writing library : VirtualDubMod build 2178/release

    Video
    Format : MPEG-4 Visual
    Format profile : Streaming [email protected]
    Format settings, BVOP : Yes
    Format settings, QPel : No
    Format settings, GMC : No warppoints
    Format settings, Matrix : Custom
    Codec ID : DX50
    Codec ID/Hint : DivX 5
    Duration : 1h 6mn
    Bit rate : 1 362 Kbps
    Width : 512 pixels
    Height : 384 pixels
    Display aspect ratio : 4/3
    Frame rate : 25.000 fps
    Resolution : 24 bits
    Colorimetry : 4:2:0
    Scan type : Progressive
    Bits/(Pixel*Frame) : 0.277
    Stream size : 644 MiB (92%)
    Writing library : XviD 1.2.1 (UTC 2008-12-04)

    Audio
    Format : MPEG Audio
    Format version : Version 1
    Format profile : Layer 3
    Codec ID : 55
    Codec ID/Hint : MP3
    Duration : 1h 6mn
    Bit rate mode : Constant
    Bit rate : 112 Kbps
    Channel(s) : 2 channels
    Sampling rate : 44.1 KHz
    Resolution : 16 bits
    Video delay : 20ms
    Stream size : 52.9 MiB (8%)
    Alignment : Split accross interleaves
    Interleave, duration : 80 ms (2.00 video frames)
    Interleave, preload duration : 500 ms
    Writing library : LAME3.98.2[


    Download



    Code:
    http://www.megaupload.com/?d=N8TW9OKG
    http://www.megaupload.com/?d=7R9NUL3F
    http://www.megaupload.com/?d=FN7PQ2LP
    http://www.megaupload.com/?d=G1RNRARV
    http://www.megaupload.com/?d=00S9KQNQ
    http://www.megaupload.com/?d=3FJ4SMHX
    http://www.megaupload.com/?d=KJBT4MZT
    http://www.megaupload.com/?d=SUP4Q83O
    Last edited by qadar; 06-30-2009 at 08:11 AM.

  2. #2
    Hot Member www.desirulez.net
    Join Date
    Apr 2009
    Location
    London
    Posts
    1,924

    T

    Default

    Make A Reply... Its A Gift! ~Give A Rep... Its A Grace! ~Get A Rep... Its A Virtue!
    ~But Try Not To Be A Leecher ... Its An HONOR...



 

 

Posting Permissions

  • You may not post new threads
  • You may not post replies
  • You may not post attachments
  • You may not edit your posts
  •