Results 1 to 2 of 2
  1. #1
    dR Contributor www.desirulez.net
    Join Date
    Jun 2010
    Location
    India
    Posts
    2,470

    T

    Default WWE.Royal.Rumble.2011.1080i.HDTV.DD2.0.H.264-DON

    Follow us on Social Media







    WWE.Royal.Rumble.2011.1080i.HDTV.DD2.0.H.264-DON



    Code:
    Format                          : MPEG-TS 
    File size                        : 19.0 GiB 
    Duration                        : 2h 45mn 
    Overall bit rate                : 16.5 Mbps 
    
    Video 
    ID                              : 17 (0x11) 
    Menu ID                          : 1 (0x1) 
    Format                          : AVC 
    Format/Info                      : Advanced Video Codec 
    Format profile                  : [email protected] 
    Format settings, CABAC          : Yes 
    Format settings, ReFrames        : 4 frames 
    Duration                        : 2h 45mn 
    Bit rate                        : 14.9 Mbps 
    Width                            : 1 920 pixels 
    Height                          : 1 080 pixels 
    Display aspect ratio            : 16:9 
    Frame rate                      : 25.000 fps 
    Resolution                      : 8 bits 
    Colorimetry                      : 4:2:0 
    Scan type                        : Interlaced 
    Scan order                      : Top Field First 
    Bits/(Pixel*Frame)              : 0.288 
    Stream size                      : 17.3 GiB (91%) 
    Color primaries                  : BT.709-5, BT.1361, IEC 61966-2-4, SMPTE RP177 
    Transfer characteristics        : BT.709-5, BT.1361 
    Matrix coefficients              : BT.709-5, BT.1361, IEC 61966-2-4 709, SMPTE RP177 
    
    Audio 
    ID                              : 20 (0x14) 
    Menu ID                          : 1 (0x1) 
    Format                          : AC-3 
    Format/Info                      : Audio Coding 3 
    Duration                        : 2h 45mn 
    Bit rate mode                    : Constant 
    Bit rate                        : 384 Kbps 
    Channel(s)                      : 2 channels 
    Channel positions                : L R 
    Sampling rate                    : 48.0 KHz 
    Video delay                      : -1ms 
    Stream size                      : 454 MiB (2%)


    1 Link Download

    Code:
    http://www.fileserve.com/file/KmWQJCv/WWE.Royal.Rumble.2011.1080i.HDTV.DD2.0.H.264-DON.ts
    Code:
    http://turbobit.net/r3db0vfke1bz/WWE.Royal.Rumble.2011.1080i.HDTV.DD2.0.H.264-DON.ts.html

  2. #2
    Senior Member www.desirulez.net
    Join Date
    Dec 2010
    Posts
    104

    T

    Default

    very nice bro i wish if they had release this sooner

 

 

Posting Permissions

  • You may not post new threads
  • You may not post replies
  • You may not post attachments
  • You may not edit your posts
  •